Великий О (Повний сезон)/ The Big O (1999-2003) 720p Jap | sub Ukr

Нові коментарі

Нова тема   Відповісти
Автор Повідомлення
Amanogawa 
VIP


З нами з: 27.09.17
Востаннє: 20.02.20
Повідомлень: 619

2019-08-09 09:13  
Великий О (Повний сезон)/ The Big O (1999-2003) 720p Jap | sub Ukr

Великий О (Повний сезон)/ The Big O (1999-2003)  720p Jap | sub Ukr


Жанр: Наукова фантастика, Меха, Екшн
Країна: Японія



Кінокомпанія: Sunrise
Режисер: Катаяма Казуйоші
Сюжет:
Великий О - меха з елементами неонуару та технонуару. Пастиш на Бетмена: Анімаційні серії. Події розгортаються в місті Парадигмі - єдиному місті, що вижив після подій сорокарічної давнини; у той самий час усі люди та й андроїди втратили спогади про події до того дня. Головним героєм є Роджер Сміт - переговорник Парадигми, який допомагає людям вирішити їхні проблеми, а вільний час пілотує Великим О - мегадеусом, з яким вони вдвох захищають Парадигму від чудовиськ, богів та інших мегадеусів.


Тривалість: приблизно 24 хв на серію. В роздачі усі серії, з першої по останню.
Якість:
Відео:
кодек:
розмір кадру: 960 х 720 (4:3)
бітрейт: 3200 кб/с

Аудіо:
мова: японська
переклад: оригінал
кодек: 2.0
бітрейт: 160 кб/с

Субтитри:
мова: українська
тип: програмні (м'які)
формат: *.
Info
General
Unique ID : 225661423639492916796072016527414994429 (0xA9C4CF2ECFB807DC8427A5EDC1F725FD)
Format :
Format version : Version 4
File size : 582 MiB
Duration : 23 min 41 s
Overall bit rate : 3 436 kb/s
Movie name : Roger The Negotiator
Encoded date : UTC 2019-08-08 13:41:20
Writing application : v35.0.0 ('All The Love In The World') 32-bit
Writing library : libebml v1.3.9 + v1.5.2
Attachments : Bitter-Bold.otf / Bitter-BoldItalic.otf / Bitter-Italic.otf / Bitter-Regular.otf / Chivo-Bold.otf / Chivo-BoldItalic.otf

Video
ID : 1
Format : AVC
Format/Info : Advanced Video Codec
Format profile : High [email protected]
Format settings : CABAC / 5 Ref Frames
Format settings, CABAC : Yes
Format settings, Reference : 5 frames
Codec ID : V_MPEG4/ISO/AVC
Duration : 23 min 41 s
Bit rate : 3 273 kb/s
Width : 960 pixels
Height : 720 pixels
Display aspect ratio : 4:3
Frame rate mode : Constant
Frame rate : 23.976 (24000/1001) FPS
Color space : YUV
Chroma subsampling : 4:2:0
Bit depth : 10 bits
Scan type : Progressive
Bits/(Pixel*Frame) : 0.197
Stream size : 554 MiB (95%)
Writing library : core 146 r2538kMod 121396c
Encoding settings : cabac=1 / ref=5 / deblock=1:0:0 / analyse=0x3:0x113 / me=umh / subme=8 / psy=1 / fade_compensate=0.00 / psy_rd=0.90:0.05 / mixed_ref=1 / me_range=16 / chroma_me=1 / trellis=1 / 8x8dct=1 / cqm=0 / deadzone=21,11 / fast_pskip=0 / chroma_qp_offset=-3 / threads=6 / lookahead_threads=1 / sliced_threads=0 / nr=0 / decimate=1 / interlaced=0 / bluray_compat=0 / constrained_intra=0 / fgo=0 / bframes=3 / b_pyramid=2 / b_adapt=2 / b_bias=0 / direct=3 / weightb=1 / open_gop=0 / weightp=2 / keyint=250 / keyint_min=23 / scenecut=40 / intra_refresh=0 / rc_lookahead=50 / rc=crf / mbtree=1 / crf=17.0000 / qcomp=0.60 / qpmin=0 / qpmax=48 / qpstep=4 / ip_ratio=1.40 / aq=1:1.00
Default : Yes
Forced : No

Audio
ID : 2
Format : Opus
Codec ID : A_OPUS
Duration : 23 min 41 s
Bit rate : 159 kb/s
Channel(s) : 2 channels
Channel layout : L R
Sampling rate : 48.0 kHz
Frame rate : 50.000 FPS (960 SPF)
Compression mode : Lossy
Stream size : 26.9 MiB (5%)
Language : Japanese
Default : Yes
Forced : No

Text
ID : 3
Format :
Codec ID : S_TEXT/
Codec ID/Info : Advanced Sub Station Alpha
Duration : 21 min 48 s
Bit rate : 105 b/s
Count of elements : 210
Compression mode : Lossless
Stream size : 16.9 KiB (0%)
Language : Ukrainian
Default : Yes
Forced : No
Скріншоти




Джерело: Переклади Mitsuruki
Переклад: JacobSV, Стас, D Y, Valichelo та інші.
Особиста оцінка:
Узагалі стиль непоганий, та сюжет у кінці провисає. Персонаж Дороті сподобався найбільше, бо вона зазвичай виконує комічну функцію


 Трекер:    Зареєстрований   

Завантажити / скачати аніме українською



відео для новачків



 Зареєстрований:   2019-08-09 09:13
 Розмір:   11.43 GB 
 Оцінка аніме:   10/10 (Голосів: 4)
   
SirPent 
Новенький


З нами з: 06.01.10
Востаннє: 22.02.20
Повідомлень: 13

2019-08-26 22:29  
Я не вірю своїм очам. )
Duende 
Новенький


З нами з: 04.10.13
Востаннє: 18.02.20
Повідомлень: 4

2019-12-15 22:53  
Дякую, чудова робота
Ваш часовий пояс: GMT + 2 Години

Нова тема   Відповісти