Мисливець х Мисливець (серія 19 зі 148) / Hunter x Hunter (2011) 720p jap | sub Ukr

Нові коментарі

Нова тема   Відповісти
Останній раз роздавалося Vadym_Vadym (2020-02-22)
Автор Повідомлення
Amanogawa 
VIP


З нами з: 27.09.17
Востаннє: 20.02.20
Повідомлень: 619

2019-08-07 23:42  
Мисливець х Мисливець (серія 19 зі 148) / Hunter x Hunter (2011) 720p jap | sub Ukr

Мисливець х Мисливець (серія 19 зі 148) / Hunter x Hunter (2011) 720p jap | sub Ukr


Жанр: Шьонен, пригоди, фентезі
Країна: Японія



Кінокомпанія: Madhouse
Режисер: Масао Маруяма
Актори: Хан Меґумі, Марія Ісе, Міюкі Савашіро, Кейджі Фуджівара та ін.

Сюжет:
Ґон, 12-річний підліток з невеликого села на далекому острові, намагається стати мисливцем – елітним авантюристом з особливою ліцензією, яка відкриває шляхи до таємної інформації, секретів і багатств всього світу, – аби знайти свого батька, який свого часу теж став мисливцем, і розкрити причини його таємничого зникнення. На своєму шляху він зустрічає друзів зі своїми цілями, а також, звісно, ворогів і мусить подолати безліч труднощів, аби стати кращим з кращих.


Тривалість: 00:23:37
Якість:
Відео:
кодек:
розмір кадру: 1 280 х 720
бітрейт: 1 776 кб/с

Аудіо:
мова: японська
переклад: оригінал
кодек: 2.0
бітрейт: 128 кб/с

Субтитри:
мова: українська
тип: програмні (м'які)
формат: *.
Info
Format :
Format version : Version 4
File size : 322 MiB
Duration : 23 min 37 s
Overall bit rate : 1 904 kb/s
Encoded date : UTC 2019-08-07 20:52:31
Writing application : v30.1.0 ('Forever And More') 64-bit
Writing library : libebml v1.3.6 + v1.4.9
Attachments : OpenSans-Semibold.ttf

Video
ID : 1
Format : AVC
Format/Info : Advanced Video Codec
Format profile : [email protected]
Format settings : CABAC / 6 Ref Frames
Format settings, CABAC : Yes
Format settings, ReFrames : 6 frames
Codec ID : V_MPEG4/ISO/AVC
Duration : 23 min 37 s
Bit rate : 1 776 kb/s
Width : 1 280 pixels
Height : 720 pixels
Display aspect ratio : 16:9
Frame rate mode : Constant
Frame rate : 23.976 (23976/1000) FPS
Color space : YUV
Chroma subsampling : 4:2:0
Bit depth : 8 bits
Scan type : Progressive
Bits/(Pixel*Frame) : 0.080
Stream size : 299 MiB (93%)
Writing library : core 120 r2120 0c7dab9
Encoding settings : cabac=1 / ref=6 / deblock=1:1:1 / analyse=0x3:0x113 / me=umh / subme=8 / psy=1 / psy_rd=0.40:0.00 / mixed_ref=1 / me_range=16 / chroma_me=1 / trellis=1 / 8x8dct=1 / cqm=0 / deadzone=21,11 / fast_pskip=1 / chroma_qp_offset=-2 / threads=4 / sliced_threads=0 / nr=0 / decimate=1 / interlaced=0 / bluray_compat=0 / constrained_intra=0 / bframes=3 / b_pyramid=2 / b_adapt=2 / b_bias=0 / direct=3 / weightb=1 / open_gop=0 / weightp=2 / keyint=250 / keyint_min=23 / scenecut=40 / intra_refresh=0 / rc_lookahead=50 / rc=2pass / mbtree=1 / bitrate=1776 / ratetol=1.0 / qcomp=0.60 / qpmin=0 / qpmax=69 / qpstep=4 / cplxblur=20.0 / qblur=0.5 / vbv_maxrate=3552 / vbv_bufsize=8880 / nal_hrd=none / ip_ratio=1.40 / aq=1:0.60
Default : Yes
Forced : No

Audio
ID : 2
Format : LC
Format/Info : Advanced Audio Codec Low Complexity
Codec ID : A_AAC-2
Duration : 23 min 37 s
Bit rate : 128 kb/s
Channel(s) : 2 channels
Channel layout : L R
Sampling rate : 44.1 kHz
Frame rate : 43.066 FPS (1024 SPF)
Compression mode : Lossy
Stream size : 21.6 MiB (7%)
Language : Japanese
Default : Yes
Forced : No

Text
ID : 3
Format :
Codec ID : S_TEXT/
Codec ID/Info : Advanced Sub Station Alpha
Duration : 23 min 31 s
Bit rate : 116 b/s
Count of elements : 297
Compression mode : Lossless
Stream size : 20.1 KiB (0%)
Title : Mitsuruki
Language : Ukrainian
Default : Yes
Forced : No
Список серій
1. «Виїзд х і х друзі» (23 хв. 37 сек.)
2. «Тест х над х тестами» (23 хв. 37 сек.)
3 «Суперництво х за х виживання» (23 хв. 37 сек.)
4. «Надія х та х амбіції» (23 хв. 37 сек.)
5. «Такий х підступний х Хісока» (23 хв. 37 сек.)
6. «Дуже х неочікуваний х виклик» (23 хв. 37 сек.)
7. «Протистояння х на х дирижаблі» (23 хв. 37 сек.)
8. «Рішення х від х більшості?» (23 хв. 37 сек.)
9. «Остерігайтеся х ж х в'язнів» (23 хв. 37 сек.)
10. «Хитрість х задля х хитрості» (23 хв. 37 сек.)
11. «Проблеми х з х азартом» (23 хв. 37 сек.)
12. «Останнє х випробування х рішучості» (23 хв. 37 сек.)
13. «Лист х від х Ґона» (23 хв. 37 сек.)
14. «Бий х по х цілі» (23 хв. 37 сек.)
15. «Апогей х всієї х облудності» (23 хв. 37 сек.)
16. «Поразка х та х ганьба» (23 хв. 37 сек.)
17. «Пастка х в х ямі» (23 хв. 37 сек.)
18. «Довга х тривала х співбесіда» (23 хв. 37 сек.)
19. «Не виграти х і х не програти» (23 хв. 37 сек.)
Скріншоти


Джерело: HorribleSubs + Переклад Mitsuruki (Серафікус, HeavyUA)
Особиста оцінка: 9 - моїй подрузі не сподобався контроверсивний клоун


Золотий реліз (завантажене не впливає на рейтинг)
 Трекер:    Зареєстрований   

Завантажити / скачати аніме українською



відео для новачків



 Зареєстрований:   2019-12-31 15:45
 Розмір:   5.97 GB 
 Оцінка аніме:   9.7/10 (Голосів: 6)
   
hetzendorf 
Попереджень: 2
Попереджень: 2 


З нами з: 23.07.15
Востаннє: 22.02.20
Повідомлень: 2666

2019-08-08 11:29  
Озвучка не планується? Бо стільки серій із субами якось напружно дивитися. Проте рейтинг, як то кажуть, шепоче ^_^
Amanogawa 
VIP


З нами з: 27.09.17
Востаннє: 20.02.20
Повідомлень: 619

2019-08-08 12:30  
hetzendorf
Поки наші дабери не планували озвучувати. Може, хтось колись і озвучить, побачимо. Стільки серій треба ще хоч сабами перекласти

Amanogawa 
VIP


З нами з: 27.09.17
Востаннє: 20.02.20
Повідомлень: 619

2019-08-09 22:03  
Додано другу, третю та четверту серії!
Amanogawa 
VIP


З нами з: 27.09.17
Востаннє: 20.02.20
Повідомлень: 619

2019-08-10 10:50  
Додано п'яту серію!
Amanogawa 
VIP


З нами з: 27.09.17
Востаннє: 20.02.20
Повідомлень: 619

2019-08-14 01:17  
Додано 6-10 серії!
Amanogawa 
VIP


З нами з: 27.09.17
Востаннє: 20.02.20
Повідомлень: 619

2019-08-18 22:38  
Додано 11-16 серії!
Amanogawa 
VIP


З нами з: 27.09.17
Востаннє: 20.02.20
Повідомлень: 619

2019-12-30 21:09  
Додано 17 серію!
Amanogawa 
VIP


З нами з: 27.09.17
Востаннє: 20.02.20
Повідомлень: 619

2019-12-31 15:44  
Додано ще дві серії!
Ваш часовий пояс: GMT + 2 Години

Нова тема   Відповісти