Мерайя Мунді і скринька Мідаса / The Adventurer. The Curse of the Midas Box (2013) 1080p Ukr/Eng | Sub Eng

Нові коментарі

Нова тема   Відповісти
Автор Повідомлення
Anonymous 







2019-08-07 13:47  
Мерайя Мунді і скринька Мідаса / The Adventurer. The Curse of the Midas Box (2013) 1080p Ukr/Eng | Sub Eng

Мерайя Мунді і скринька Мідаса / The Adventurer. The Curse of the Midas Box (2013) 1080p Ukr/Eng | Sub Eng


Жанр: пригодницький, сімейний, фентезі
Країна: Велика Британія, Іспанія, Бельгія



Кінокомпанія: Entertainment Motion Pictures (E-MOTION), Arcadia Motion Pictures, Matador Pictures
Режисер: Джонатан Ньюмен / Jonathan Newman
Актори: Аневрин Барнар / Aneurin Barnard, Майкл Шин / Michael Sheen, Ліна Гіді / Lena Headey, Сем Неіл / Sam Neill, Джон Грюффуд / Ioan Gruffudd, Кілі Гоус / Keeley Hawes, Ксав'є Аткінс / Xavier Atkins, Мелла Каррон / Mella Carron, Вінченцо Пеллеґріно / Vincenzo Pellegrino, Браян Нікельс / Brian Nickels, Олівер Старк / Oliver Stark та інші.

Сюжет:
Життя сімнадцятирічного Мерайї Мунді перевернуто догори ногами, коли його батьки зникають, а молодшого брата викрадають. У пошуках брата Мерайя знаходить приховане царство чудовиськ, що крадуть дітей, смертельну таємницю та давно загублений артефакт, який дарує безмежне багатство - перетворює будь-яку річ на золото.


Тривалість: 01:39:05
Якість:
Відео:
кодек:
розмір кадру: 1920 х 816
бітрейт: 8300 кб/с

Аудіо # 1:
мова: українська
переклад: багатоголосий закадровий
кодек: 2.0
бітрейт: 192 кб/с

Аудіо # 2:
мова: англійська
переклад: оригінал
кодек: 5.1
бітрейт: 1509 кб/с

Джерело озвучення:
ВОЛЯ CINE+

Субтитри:
мова: англійська
тип: програмні (м'які)
формат: *.srt
Info
General
Unique ID : 277697357099561325865801892822790527892 (0xD0EA90C7FC140194BE98450315615B94)
Complete name : The Adventurer. The Curse of the Midas Box (2013) 1080p [UKR_ENG] [Hurtom].
Format :
Format version : Version 4
File size : 6.92 GiB
Duration : 1 h 39 min
Overall bit rate : 9 996 kb/s
Movie name : Мерайя Мунді і скринька Мідаса (2013)
Encoded date : UTC 2019-08-07 10:38:25
Writing application : v30.1.0 ('Forever And More') 32-bit
Writing library : libebml v1.3.6 + v1.4.9
Cover : Yes
Attachments : cover.jpg

Video
ID : 1
Format : AVC
Format/Info : Advanced Video Codec
Format profile : [email protected]
Format settings : CABAC / 4 Ref Frames
Format settings, CABAC : Yes
Format settings, ReFrames : 4 frames
Codec ID : V_MPEG4/ISO/AVC
Duration : 1 h 39 min
Bit rate : 8 300 kb/s
Width : 1 920 pixels
Height : 816 pixels
Display aspect ratio : 2.35:1
Frame rate mode : Constant
Frame rate : 23.976 (24000/1001) FPS
Color space : YUV
Chroma subsampling : 4:2:0
Bit depth : 8 bits
Scan type : Progressive
Bits/(Pixel*Frame) : 0.221
Stream size : 5.74 GiB (83%)
Writing library : core 130 r2273 b3065e6
Encoding settings : cabac=1 / ref=4 / deblock=1:-3:-3 / analyse=0x3:0x133 / me=umh / subme=11 / psy=1 / psy_rd=1.00:0.20 / mixed_ref=1 / me_range=32 / chroma_me=1 / trellis=2 / 8x8dct=1 / cqm=0 / deadzone=21,11 / fast_pskip=0 / chroma_qp_offset=-3 / threads=12 / lookahead_threads=2 / sliced_threads=0 / nr=0 / decimate=0 / interlaced=0 / bluray_compat=0 / constrained_intra=0 / bframes=8 / b_pyramid=2 / b_adapt=2 / b_bias=0 / direct=3 / weightb=1 / open_gop=0 / weightp=2 / keyint=240 / keyint_min=23 / scenecut=40 / intra_refresh=0 / rc=2pass / mbtree=0 / bitrate=8300 / ratetol=1.0 / qcomp=0.60 / qpmin=0 / qpmax=69 / qpstep=4 / cplxblur=20.0 / qblur=0.5 / ip_ratio=1.40 / pb_ratio=1.30 / aq=1:1.00
Language : English
Default : Yes
Forced : No

Audio #1
ID : 2
Format : AC-3
Format/Info : Audio Coding 3
Commercial name : Dolby Digital
Codec ID : A_AC3
Duration : 1 h 39 min
Bit rate mode : Constant
Bit rate : 192 kb/s
Channel(s) : 2 channels
Channel layout : L R
Sampling rate : 48.0 kHz
Frame rate : 31.250 FPS (1536 SPF)
Bit depth : 16 bits
Compression mode : Lossy
Stream size : 136 MiB (2%)
Language : Ukrainian
Service kind : Complete Main
Default : Yes
Forced : Yes

Audio #2
ID : 3
Format :
Format/Info : Digital Theater Systems
Codec ID : A_DTS
Duration : 1 h 39 min
Bit rate mode : Constant
Bit rate : 1 509 kb/s
Channel(s) : 6 channels
Channel layout : C L R Ls Rs LFE
Sampling rate : 48.0 kHz
Frame rate : 93.750 FPS (512 SPF)
Bit depth : 24 bits
Compression mode : Lossy
Stream size : 1.04 GiB (15%)
Language : English
Default : No
Forced : No

Text
ID : 4
Format : UTF-8
Codec ID : S_TEXT/UTF8
Codec ID/Info : UTF-8 Plain Text
Duration : 1 h 33 min
Bit rate : 46 b/s
Count of elements : 1127
Stream size : 31.5 KiB (0%)
Language : English
Default : No
Forced : No

Menu
00:00:00.000 : en:Chapter 01
00:08:30.760 : en:Chapter 02
00:20:06.455 : en:Chapter 03
00:27:59.886 : en:Chapter 04
00:38:42.111 : en:Chapter 05
00:44:18.030 : en:Chapter 06
00:50:11.383 : en:Chapter 07
00:58:18.703 : en:Chapter 08
01:08:02.995 : en:Chapter 09
01:15:33.195 : en:Chapter 10
01:22:20.393 : en:Chapter 11
01:32:54.318 : en:Chapter 12
Скріншоти





Джерело:
аудіо доріжку взято звідси https://toloka.to/t103137


 Трекер:    Зареєстрований   

Завантажити / скачати фільм українською



відео для новачків



 Зареєстрований:   2019-08-07 14:06
 Розмір:   6.92 GB 
 Оцінка фільму:   9.7/10 (Голосів: 6)
   
Ваш часовий пояс: GMT + 2 Години

Нова тема   Відповісти