Ліга Чемпіонів 2019-2020 / 3-й кваліфікаційний раунд / Перший матч / Брюгге (Бельгія) - Динамо Київ (Україна) / Club Brugge KV - FC Dynamo Kyiv / 2 + 2 (06.08.2019)

Нові коментарі

Нова тема   Відповісти
Останній раз роздавалося antik_2008 (2019-08-23)
Автор Повідомлення
Anonymous 







2019-08-07 10:29  
Ліга Чемпіонів 2019-2020 / 3-й кваліфікаційний раунд / Перший матч / Брюгге (Бельгія) - Динамо Київ (Україна) / Club Brugge KV - FC Dynamo Kyiv / 2 + 2 (06.08.2019)

Ліга Чемпіонів 2019-2020 / 3-й кваліфікаційний раунд / Перший матч / Брюгге (Бельгія) - Динамо Київ (Україна) / Club Brugge KV - FC Dynamo Kyiv / 2 + 2 (06.08.2019)


Телеканал: 2+2
Опис:
6 серпня 2019 року, 21:30 (МСК)

Ян Брейдель

Головний суддя Хав'єр Естрада Фернандес

Помічники судді Роберто Алонсо Фернандес, Хосе Наранхо Перес

Запасний суддя Пабло Фуертес
Тривалість:
01:42:50
Якість:
Відео:
кодек:
розмір кадру: 720x576
бітрейт: 2279 кб/с

Аудіо:
мова: українська
переклад: одноголосий закадровий | Володимир Зверов
кодек: 2.0
бітрейт: 192 кб/с
Склади
Info
Код:
General
Complete name                            : Club Brugge KV_FC Dynamo Kyiv (06.08.2019) .
Format                                   :
Format version                           : Version 2
File size                                : 1.81 GiB
Duration                                 : 1 h 42 min
Overall bit rate mode                    : Variable
Overall bit rate                         : 2 521 kb/s
Writing application                      : Lavf54.63.104
Writing library                          : Lavf54.63.104

Video
ID                                       : 1
Format                                   : AVC
Format/Info                              : Advanced Video Codec
Format profile                           : [email protected]
Format settings                          : CABAC / 3 Ref Frames
Format settings, CABAC                   : Yes
Format settings, RefFrames               : 3 frames
Codec ID                                 : V_MPEG4/ISO/AVC
Duration                                 : 1 h 42 min
Bit rate mode                            : Variable
Bit rate                                 : 2 279 kb/s
Maximum bit rate                         : 9 800 kb/s
Width                                    : 720 pixels
Height                                   : 576 pixels
Display aspect ratio                     : 16:9
Original display aspect ratio            : 16:9
Frame rate mode                          : Constant
Frame rate                               : 25.000 FPS
Standard                                 : PAL
Color space                              : YUV
Chroma subsampling                       : 4:2:0
Bit depth                                : 8 bits
Scan type                                : Interlaced
Scan type, store method                  : Separated fields
Scan order                               : Top Field First
Bits/(Pixel*Frame)                       : 0.220
Stream size                              : 1.64 GiB (90%)
Default                                  : No
Forced                                   : No
Color range                              : Limited

Audio
ID                                       : 2
Format                                   : MPEG Audio
Format version                           : Version 1
Format profile                           : Layer 2
Codec ID                                 : A_MPEG/L2
Codec ID/Hint                            : MP2
Duration                                 : 1 h 42 min
Bit rate mode                            : Constant
Bit rate                                 : 192 kb/s
Channel(s)                               : 2 channels
Sampling rate                            : 48.0 kHz
Compression mode                         : Lossy
Delay relative to video                  : 22 ms
Stream size                              : 141 MiB (8%)
Language                                 : English
Default                                  : Yes
Forced                                   : No

Скріншоти




Бронзовий реліз (на рейтинг впливає 75% завантаженого)
 Трекер:    Зареєстрований   

Завантажити / скачати торрент



відео для новачків



 Зареєстрований:   2019-08-07 10:29
 Розмір:   1.81 GB 
 Оцінка:   9/10 (Голосів: 1)
   
pavlo-kyiv 
Новенький


З нами з: 01.05.16
Востаннє: 14.08.19
Повідомлень: 14

2019-08-11 14:29  
Підступний рахуночок...
Ваш часовий пояс: GMT + 2 Години

Нова тема   Відповісти