Королівський коргі / The Queen's Corgi (2019) Remux 1080p Ukr/Eng | Sub Eng

Нові коментарі

Нова тема   Відповісти
Автор Повідомлення
Anonymous 







2019-08-07 09:26  
Королівський коргі / The Queen's Corgi (2019) Remux 1080p Ukr/Eng | Sub Eng


«Хвостатий кардинал британського престолу»




Жанр: комедія, мультфільм, сімейний
Країна: Бельгія



Кінокомпанія: Belga Productions, King Dom Productions, The Montecito Picture Company
Режисер: Вінсент Кестелут, Бен Стассен
Актори: Діно Андраде, Джоі Кемен, Ніколь Шерман, Кірк Торнтон, Медісон Браун, Каміла Родс, Джейн Алан, Джо Уайатт

Сюжет:
Пригоди Рекса, улюбленої собаки британської королеви. Рекс одного разу втрачає свою господиню з очей і залишається зовсім один посеред галасливих вулиць. Щоб повернутися додому, Рексу належить зіткнутися зі злими собаками різних порід, закохатися і знайти своє справжнє «я».


Тривалість: 01:25:17
Якість: Remux 1080р

Відео:
кодек:
розмір кадру: 1920x1080
бітрейт: 28,8 мб/с

Аудіо # 1:
мова: українська
переклад: професійний дубльований | студія Postmodern
кодек: 5.1
бітрейт: 384 кб/с
Інформація про дубляж
Перекладач: Катерина Щепковська
Режисер дубляжу: Катерина Брайковська
Звукорежисер: Андрій Славинський
Звукорежисер перезапису: Максим Корнелюк
Ролі дублювали: Олександр Педан, Михайло Войчук, Катерина Буцька, Дмитро Завадський, Ніна Касторф, Олександр Ігнатуша, Юрій Гребельник, Андрій Мостренко, Катерина Брайковська та інші.

Фільм дубльовано студією Postmodern на замовлення компанії "Вольга Україна".
Аудіо # 2:
мова: англійська
переклад: оригінал
кодек: -HD MA 5.1
бітрейт: 2659 кб/с

Субтитри:
мова: англійська
тип: програмні (м'які)
формат: *.srt
Info
Код:
General
Complete name                            : The Queen's Corgi (2019) Remux 1080p [Ukr_Eng].
Format                                   :
Format version                           : Version 4
File size                                : 19.0 GiB
Duration                                 : 1 h 25 min
Overall bit rate mode                    : Variable
Overall bit rate                         : 31.9 Mb/s
Encoded date                             : UTC 2019-08-07 06:58:56
Writing application                      : v30.1.0 ('Forever And More') 64-bit
Writing library                          : libebml v1.3.6 + v1.4.9

Video
ID                                       : 1
Format                                   : AVC
Format/Info                              : Advanced Video Codec
Format profile                           : [email protected]
Format settings                          : CABAC / 4 Ref Frames
Format settings, CABAC                   : Yes
Format settings, RefFrames               : 4 frames
Codec ID                                 : V_MPEG4/ISO/AVC
Duration                                 : 1 h 25 min
Bit rate mode                            : Variable
Bit rate                                 : 28.8 Mb/s
Maximum bit rate                         : 38.0 Mb/s
Width                                    : 1 920 pixels
Height                                   : 1 080 pixels
Display aspect ratio                     : 16:9
Frame rate mode                          : Constant
Frame rate                               : 24.000 FPS
Color space                              : YUV
Chroma subsampling                       : 4:2:0
Bit depth                                : 8 bits
Scan type                                : Progressive
Bits/(Pixel*Frame)                       : 0.579
Stream size                              : 17.2 GiB (90%)
Default                                  : Yes
Forced                                   : No

Audio #1
ID                                       : 2
Format                                   : AC-3
Format/Info                              : Audio Coding 3
Commercial name                          : Dolby Digital
Codec ID                                 : A_AC3
Duration                                 : 1 h 25 min
Bit rate mode                            : Constant
Bit rate                                 : 384 kb/s
Channel(s)                               : 6 channels
Channel layout                           : L R C LFE Ls Rs
Sampling rate                            : 48.0 kHz
Frame rate                               : 31.250 FPS (1536 SPF)
Bit depth                                : 16 bits
Compression mode                         : Lossy
Stream size                              : 234 MiB (1%)
Title                                    : , 6 ch, 384 Кбт/с
Language                                 : Ukrainian
Service kind                             : Complete Main
Default                                  : Yes
Forced                                   : No

Audio #2
ID                                       : 3
Format                                   : XLL
Format/Info                              : Digital Theater Systems
Commercial name                          : -HD Master Audio
Codec ID                                 : A_DTS
Duration                                 : 1 h 25 min
Bit rate mode                            : Variable
Bit rate                                 : 2 659 kb/s
Channel(s)                               : 6 channels
Channel layout                           : C L R Ls Rs LFE
Sampling rate                            : 48.0 kHz
Frame rate                               : 93.750 FPS (512 SPF)
Bit depth                                : 16 bits
Compression mode                         : Lossless
Stream size                              : 1.58 GiB (8%)
Title                                    : -HD MA, 6 ch, 2659 Кбт/с
Language                                 : English
Default                                  : No
Forced                                   : No

Text
ID                                       : 4
Format                                   : UTF-8
Codec ID                                 : S_TEXT/UTF8
Codec ID/Info                            : UTF-8 Plain Text
Duration                                 : 1 h 18 min
Bit rate                                 : 56 b/s
Count of elements                        : 999
Stream size                              : 32.6 KiB (0%)
Title                                    : Full
Language                                 : English
Default                                  : Yes
Forced                                   : No
Скріншоти




Джерело:
Особиста оцінка: 0 - не дивився


Золотий реліз (завантажене не впливає на рейтинг)
 Трекер:    Зареєстрований   

Завантажити / скачати мультфільм українською



відео для новачків



 Зареєстрований:   2019-08-07 09:26
 Розмір:   18.98 GB 
 Оцінка мультфільму:   8.1/10 (Голосів: 10)
   
Ваш часовий пояс: GMT + 2 Години

Нова тема   Відповісти