Королівський коргі / The Queen's Corgi (2019) 1080p Ukr/Eng | Sub Eng

Нові коментарі

Нова тема   Відповісти
Автор Повідомлення
Anonymous 







2019-08-07 08:53  
Королівський коргі / The Queen's Corgi (2019) 1080p Ukr/Eng | Sub Eng


«Хвостатий кардинал британського престолу»




Жанр: комедія, мультфільм, сімейний
Країна: Бельгія



Кінокомпанія: Belga Productions, King Dom Productions, The Montecito Picture Company
Режисер: Вінсент Кестелут, Бен Стассен
Актори: Діно Андраде, Джоі Кемен, Ніколь Шерман, Кірк Торнтон, Медісон Браун, Каміла Родс, Джейн Алан, Джо Уайатт

Сюжет:
Пригоди Рекса, улюбленої собаки британської королеви. Рекс одного разу втрачає свою господиню з очей і залишається зовсім один посеред галасливих вулиць. Щоб повернутися додому, Рексу належить зіткнутися зі злими собаками різних порід, закохатися і знайти своє справжнє «я».


Тривалість: 01:25:17
Якість: 1080р

Відео:
кодек:
розмір кадру: 1920x1080
бітрейт: 11,9 мб/с

Аудіо # 1:
мова: українська
переклад: професійний дубльований | студія Postmodern
кодек: 5.1
бітрейт: 384 кб/с
Інформація про дубляж
Перекладач: Катерина Щепковська
Режисер дубляжу: Катерина Брайковська
Звукорежисер: Андрій Славинський
Звукорежисер перезапису: Максим Корнелюк
Ролі дублювали: Олександр Педан, Михайло Войчук, Катерина Буцька, Дмитро Завадський, Ніна Касторф, Олександр Ігнатуша, Юрій Гребельник, Андрій Мостренко, Катерина Брайковська та інші.

Фільм дубльовано студією Postmodern на замовлення компанії "Вольга Україна".
Аудіо # 2:
мова: англійська
переклад: оригінал
кодек: 5.1
бітрейт: 640 кб/с

Субтитри:
мова: англійська
тип: програмні (м'які)
формат: *.srt
Info
Код:
General
Complete name                            : The Queen's Corgi (2019) 1080p [Ukr_Eng] [Video_Hurtom].
Format                                   :
Format version                           : Version 4
File size                                : 7.67 GiB
Duration                                 : 1 h 25 min
Overall bit rate                         : 12.9 Mb/s
Movie name                               : The Queen's Corgi (2019) 1080p [Ukr_Eng] [Video_Hurtom]
Encoded date                             : UTC 2019-08-07 06:46:05
Writing application                      : v30.1.0 ('Forever And More') 64-bit
Writing library                          : libebml v1.3.6 + v1.4.9

Video
ID                                       : 1
Format                                   : AVC
Format/Info                              : Advanced Video Codec
Format profile                           : [email protected]
Format settings                          : CABAC / 4 Ref Frames
Format settings, CABAC                   : Yes
Format settings, RefFrames               : 4 frames
Codec ID                                 : V_MPEG4/ISO/AVC
Duration                                 : 1 h 25 min
Bit rate                                 : 11.9 Mb/s
Width                                    : 1 920 pixels
Height                                   : 1 080 pixels
Display aspect ratio                     : 16:9
Frame rate mode                          : Constant
Frame rate                               : 24.000 FPS
Color space                              : YUV
Chroma subsampling                       : 4:2:0
Bit depth                                : 8 bits
Scan type                                : Progressive
Bits/(Pixel*Frame)                       : 0.238
Stream size                              : 7.06 GiB (92%)
Title                                    : iFT
Writing library                          : core 155 r2867+74 66b5600 t_mod_Custom_2 [[email protected] X86_64]
Encoding settings                        : cabac=1 / ref=4 / deblock=1:-3:-3 / analyse=0x3:0x113 / me=umh / subme=11 / psy=1 / fade_compensate=0.00 / psy_rd=1.00:0.00 / mixed_ref=1 / me_range=32 / chroma_me=1 / trellis=2 / 8x8dct=1 / cqm=0 / deadzone=21,11 / fast_pskip=0 / chroma_qp_offset=-2 / threads=18 / lookahead_threads=3 / sliced_threads=0 / nr=0 / decimate=0 / interlaced=0 / bluray_compat=0 / constrained_intra=0 / fgo=0 / bframes=8 / b_pyramid=2 / b_adapt=2 / b_bias=0 / direct=3 / weightb=1 / open_gop=0 / weightp=2 / keyint=250 / keyint_min=24 / scenecut=40 / intra_refresh=0 / rc_lookahead=60 / rc=crf / mbtree=0 / crf=15.0000 / qcomp=0.60 / qpmin=0:0:0 / qpmax=69:69:69 / qpstep=4 / vbv_maxrate=62500 / vbv_bufsize=78125 / crf_max=0.0 / nal_hrd=none / filler=0 / ip_ratio=1.30 / pb_ratio=1.20 / aq=3:0.80 / aq-sensitivity=10.00 / aq-factor=1.00:1.00:1.00 / aq2=0 / aq3=0
Language                                 : English
Default                                  : Yes
Forced                                   : No
Color range                              : Limited
Color primaries                          : BT.709
Transfer characteristics                 : BT.709
Matrix coefficients                      : BT.709

Audio #1
ID                                       : 2
Format                                   : AC-3
Format/Info                              : Audio Coding 3
Commercial name                          : Dolby Digital
Codec ID                                 : A_AC3
Duration                                 : 1 h 25 min
Bit rate mode                            : Constant
Bit rate                                 : 384 kb/s
Channel(s)                               : 6 channels
Channel layout                           : L R C LFE Ls Rs
Sampling rate                            : 48.0 kHz
Frame rate                               : 31.250 FPS (1536 SPF)
Bit depth                                : 16 bits
Compression mode                         : Lossy
Stream size                              : 234 MiB (3%)
Title                                    : 5.1 | 384
Language                                 : Ukrainian
Service kind                             : Complete Main
Default                                  : Yes
Forced                                   : No

Audio #2
ID                                       : 3
Format                                   : AC-3
Format/Info                              : Audio Coding 3
Commercial name                          : Dolby Digital
Codec ID                                 : A_AC3
Duration                                 : 1 h 25 min
Bit rate mode                            : Constant
Bit rate                                 : 640 kb/s
Channel(s)                               : 6 channels
Channel layout                           : L R C LFE Ls Rs
Sampling rate                            : 48.0 kHz
Frame rate                               : 31.250 FPS (1536 SPF)
Bit depth                                : 16 bits
Compression mode                         : Lossy
Stream size                              : 390 MiB (5%)
Title                                    : 5.1 | 640
Language                                 : English
Service kind                             : Complete Main
Default                                  : No
Forced                                   : No

Text
ID                                       : 4
Format                                   : UTF-8
Codec ID                                 : S_TEXT/UTF8
Codec ID/Info                            : UTF-8 Plain Text
Duration                                 : 1 h 18 min
Bit rate                                 : 56 b/s
Count of elements                        : 999
Stream size                              : 32.6 KiB (0%)
Title                                    : Full
Language                                 : English
Default                                  : No
Forced                                   : No

Menu
00:00:00.000                             : en:Chapter 01
00:07:42.333                             : en:Chapter 02
00:14:50.708                             : en:Chapter 03
00:22:13.375                             : en:Chapter 04
00:29:44.458                             : en:Chapter 05
00:35:05.458                             : en:Chapter 06
00:40:40.000                             : en:Chapter 07
00:48:05.000                             : en:Chapter 08
00:55:05.667                             : en:Chapter 09
01:03:00.542                             : en:Chapter 10
01:10:06.083                             : en:Chapter 11
01:16:11.792                             : en:Chapter 12
Скріншоти






Джерело: &
Особиста оцінка: 0 - не дивився


 Трекер:    Зареєстрований   

Завантажити / скачати мультфільм українською



відео для новачків



 Зареєстрований:   2019-08-07 08:53
 Розмір:   7.67 GB 
 Оцінка мультфільму:   7.9/10 (Голосів: 15)
   
Ваш часовий пояс: GMT + 2 Години

Нова тема   Відповісти