Королівський коргі / The Queen's Corgi (2019) 1080p H.265 Ukr/Eng | Sub Eng

Нові коментарі

Нова тема   Відповісти
Автор Повідомлення
Anonymous 







2019-08-07 08:52  
Королівський коргі / The Queen's Corgi (2019) 1080p H.265 Ukr/Eng | Sub Eng

Королівський коргі / The Queen's Corgi (2019) 1080p H.265 Ukr/Eng | Sub Eng


Жанр: комедія, мультфільм, сімейний
Країна: Бельгія



Кінокомпанія: Belga Productions, King Dom Productions, The Montecito Picture Company
Режисер: Вінсент Кестелут, Бен Стассен
Актори: Діно Андраде, Джоі Кемен, Ніколь Шерман, Кірк Торнтон, Медісон Браун, Каміла Родс, Джейн Алан, Джо Уайатт

Сюжет:
Пригоди Рекса, улюбленої собаки британської королеви. Рекс одного разу втрачає свою господиню з очей і залишається зовсім один посеред галасливих вулиць. Щоб повернутися додому, Рексу належить зіткнутися зі злими собаками різних порід, закохатися і знайти своє справжнє «я».

Тривалість: 01:25:17
Якість:

Відео:
кодек: H.265 (HEVC)
розмір кадру: 1920 x 1080
бітрейт: 6734 кб/с
бітова глибина: 10 біт

Увага! Перед завантаженням переконайтесь, що ваш пристрій відтворення (та/або ПЗ) підтримує H.265 (HEVC)

Аудіо # 1:
мова: українська
переклад: професійний дубльований | студія Postmodern
кодек: AC-3 5.1
бітрейт: 384 кб/с
Інформація про дубляж
Перекладач: Катерина Щепковська
Режисер дубляжу: Катерина Брайковська
Звукорежисер: Андрій Славинський
Звукорежисер перезапису: Максим Корнелюк
Ролі дублювали: Олександр Педан, Михайло Войчук, Катерина Буцька, Дмитро Завадський, Ніна Касторф, Олександр Ігнатуша, Юрій Гребельник, Андрій Мостренко, Катерина Брайковська та інші.

Фільм дубльовано студією Postmodern на замовлення компанії "Вольга Україна".
Аудіо # 2:
мова: англійська
переклад: оригінал
кодек: 5.1
бітрейт: 1510 кб/с

Субтитри # 1: (Full)
мова: англійська
тип: програмні (м'які)
формат: *.srt


Info
Код:
General
Unique ID                                : 139941853210221402976573873811595758455 (0x6947D210070CD28D3E5A16EA3F908B77)
Complete name                            : The Queens Corgi (2019) 1080p H.265 [UKR_ENG] [Hurtom].
Format                                   :
Format version                           : Version 4
File size                                : 5.14 GiB
Duration                                 : 1 h 25 min
Overall bit rate                         : 8 631 kb/s
Movie name                               : Королівський коргі / The Queen's Corgi (2019)
Encoded date                             : UTC 2019-08-07 07:01:29
Writing application                      : v20.0.0 ('I Am The Sun') 64-bit
Writing library                          : libebml v1.3.5 + v1.4.8
Cover                                    : Yes
Attachments                              : Cover.jpg

Video
ID                                       : 1
Format                                   : HEVC
Format/Info                              : High Efficiency Video Coding
Format profile                           : Main [email protected]@High
Codec ID                                 : V_MPEGH/ISO/HEVC
Duration                                 : 1 h 25 min
Bit rate                                 : 6 734 kb/s
Width                                    : 1 920 pixels
Height                                   : 1 080 pixels
Display aspect ratio                     : 16:9
Frame rate mode                          : Constant
Frame rate                               : 24.000 FPS
Color space                              : YUV
Chroma subsampling                       : 4:2:0
Bit depth                                : 10 bits
Bits/(Pixel*Frame)                       : 0.135
Stream size                              : 4.01 GiB (78%)
Title                                    : Королівський коргі / The Queen's Corgi (2019)
Language                                 : English
Default                                  : Yes
Forced                                   : No
Color range                              : Limited
Color primaries                          : BT.709
Transfer characteristics                 : BT.709
Matrix coefficients                      : BT.709

Audio #1
ID                                       : 2
Format                                   : AC-3
Format/Info                              : Audio Coding 3
Commercial name                          : Dolby Digital
Codec ID                                 : A_AC3
Duration                                 : 1 h 25 min
Bit rate mode                            : Constant
Bit rate                                 : 384 kb/s
Channel(s)                               : 6 channels
Channel layout                           : L R C LFE Ls Rs
Sampling rate                            : 48.0 kHz
Frame rate                               : 31.250 FPS (1536 SPF)
Bit depth                                : 16 bits
Compression mode                         : Lossy
Stream size                              : 234 MiB (4%)
Title                                    : / 5.1 Ch / 384 kbps / ПД / iTunes
Language                                 : Ukrainian
Service kind                             : Complete Main
Default                                  : Yes
Forced                                   : Yes

Audio #2
ID                                       : 3
Format                                   :
Format/Info                              : Digital Theater Systems
Codec ID                                 : A_DTS
Duration                                 : 1 h 25 min
Bit rate mode                            : Constant
Bit rate                                 : 1 509 kb/s
Channel(s)                               : 6 channels
Channel layout                           : C L R Ls Rs LFE
Sampling rate                            : 48.0 kHz
Frame rate                               : 93.750 FPS (512 SPF)
Bit depth                                : 16 bits
Compression mode                         : Lossy
Stream size                              : 920 MiB (17%)
Title                                    : / 5.1 Ch / 1509 kbps / Original
Language                                 : English
Default                                  : No
Forced                                   : No

Text
ID                                       : 4
Format                                   : UTF-8
Codec ID                                 : S_TEXT/UTF8
Codec ID/Info                            : UTF-8 Plain Text
Duration                                 : 1 h 18 min
Bit rate                                 : 56 b/s
Count of elements                        : 999
Stream size                              : 32.6 KiB (0%)
Title                                    : Full
Language                                 : English
Default                                  : Yes
Forced                                   : No

Menu
00:00:00.000                             : en:Chapter 01
00:07:42.333                             : en:Chapter 02
00:14:50.708                             : en:Chapter 03
00:22:13.375                             : en:Chapter 04
00:29:44.458                             : en:Chapter 05
00:35:05.458                             : en:Chapter 06
00:40:40.000                             : en:Chapter 07
00:48:05.000                             : en:Chapter 08
00:55:05.667                             : en:Chapter 09
01:03:00.542                             : en:Chapter 10
01:10:06.083                             : en:Chapter 11
01:16:11.792                             : en:Chapter 12
Світлини




Джерело:
Особиста оцінка: 0 - не дивився


 Трекер:    Зареєстрований   

Завантажити / скачати мультфільм українською



відео для новачків



 Зареєстрований:   2019-08-07 09:33
 Розмір:   5.14 GB 
 Оцінка мультфільму:   7.4/10 (Голосів: 13)
   
Ваш часовий пояс: GMT + 2 Години

Нова тема   Відповісти