Менді / Mandy (2018) 720p Ukr/Eng | Sub Ukr/Eng

Нові коментарі

Нова тема   Відповісти
Автор Повідомлення
Anonymous 







2019-08-06 23:55  
Менді / Mandy (2018) 720p Ukr/Eng | Sub Ukr/Eng

Менді / Mandy (2018) 720p Ukr/Eng | Sub Ukr/Eng


Жанр: артхаус, трилер, жахи
Країна: США, Бельгія
Кінокомпанія: SpectreVision, Umedia, Legion M
Режисер: Панос Косматос
Актори: Ніколас Кейдж, Андреа Райзборо, Лайнас Роуч, Нед Деннехі

Сюжет:
Події фільму розгортаються в 1983 році. Це історія Реда Міллера - звичайного дроворуба, який жив зі своєю коханою Менді в лісі недалеко від озера. Але їх ідеальне життя було зруйновано, коли в їхній будинок несподівано вторглися прихильники жахливого культу. За дорученням свого лідера Джеремайя вони накачали Менді сильними наркотиками та провели ритуальне спалення, а Реда піддали жорстоким тортурам і майже вбили. Засліплений бажанням помсти, Ред озброюється величезною сокирою і відправляється по сліду культистів, поступово впадаючи в криваве безумство.

Тривалість: 02:01:02
Якість:

Відео:
кодек:
розмір кадру: 1280 x 536
бітрейт: 7 148 кб/с

Аудіо # 1:
мова: українська
переклад: двоголосий закадровий | DubLiCat
кодек: AC-3 2.0
бітрейт: 224 кб/с

Аудіо # 2:
мова: англійська
переклад: оригінал
кодек: 5.1
бітрейт: 1510 кб/с

Субтитри # 1: (Full by ukrrku)
мова: українська
тип: програмні (м'які)
формат: *.srt

Субтитри # 2-4: (Full, SDH, SDH-Colored)
мова: англійська
тип: програмні (м'які)
формат: *.srt


Info
Код:
General
Unique ID                                : 303360893430977380165249089299623664794 (0xE4392ED002859E5E29675639AF5F5C9A)
Complete name                            : Mandy (2018) 720p [UKR_ENG] [Hurtom].
Format                                   :
Format version                           : Version 4
File size                                : 7.51 GiB
Duration                                 : 2 h 1 min
Overall bit rate                         : 8 869 kb/s
Movie name                               : Менді / Mandy (2018)
Encoded date                             : UTC 2019-08-06 19:29:07
Writing application                      : v20.0.0 ('I Am The Sun') 64-bit
Writing library                          : libebml v1.3.5 + v1.4.8
Cover                                    : Yes
Attachments                              : Cover.png

Video
ID                                       : 1
Format                                   : AVC
Format/Info                              : Advanced Video Codec
Format profile                           : [email protected]
Format settings                          : CABAC / 12 Ref Frames
Format settings, CABAC                   : Yes
Format settings, Reference frames        : 12 frames
Codec ID                                 : V_MPEG4/ISO/AVC
Duration                                 : 2 h 1 min
Bit rate                                 : 7 148 kb/s
Width                                    : 1 280 pixels
Height                                   : 536 pixels
Display aspect ratio                     : 2.40:1
Frame rate mode                          : Constant
Frame rate                               : 23.976 (24000/1001) FPS
Color space                              : YUV
Chroma subsampling                       : 4:2:0
Bit depth                                : 8 bits
Scan type                                : Progressive
Bits/(Pixel*Frame)                       : 0.435
Stream size                              : 6.04 GiB (80%)
Title                                    : Менді / Mandy (2018)
Writing library                          : core 157 r2901M 7d0ff22
Encoding settings                        : cabac=1 / ref=12 / deblock=1:-3:-3 / analyse=0x3:0x133 / me=umh / subme=11 / psy=1 / psy_rd=1.00:0.05 / mixed_ref=1 / me_range=48 / chroma_me=1 / trellis=2 / 8x8dct=1 / cqm=0 / deadzone=21,11 / fast_pskip=0 / chroma_qp_offset=-3 / threads=9 / lookahead_threads=2 / sliced_threads=0 / nr=0 / decimate=0 / interlaced=0 / bluray_compat=0 / constrained_intra=0 / bframes=12 / b_pyramid=2 / b_adapt=2 / b_bias=0 / direct=3 / weightb=1 / open_gop=0 / weightp=2 / keyint=240 / keyint_min=23 / scenecut=40 / intra_refresh=0 / rc_lookahead=100 / rc=2pass / mbtree=0 / bitrate=7148 / ratetol=1.0 / qcomp=0.70 / qpmin=0 / qpmax=69 / qpstep=4 / cplxblur=20.0 / qblur=0.5 / vbv_maxrate=50000 / vbv_bufsize=50000 / nal_hrd=none / filler=0 / ip_ratio=1.40 / pb_ratio=1.30 / aq=1:0.70
Default                                  : Yes
Forced                                   : No

Audio #1
ID                                       : 2
Format                                   : AC-3
Format/Info                              : Audio Coding 3
Commercial name                          : Dolby Digital
Codec ID                                 : A_AC3
Duration                                 : 2 h 1 min
Bit rate mode                            : Constant
Bit rate                                 : 224 kb/s
Channel(s)                               : 2 channels
Channel layout                           : L R
Sampling rate                            : 48.0 kHz
Frame rate                               : 31.250 FPS (1536 SPF)
Bit depth                                : 16 bits
Compression mode                         : Lossy
Stream size                              : 194 MiB (3%)
Title                                    : / 2.0 Ch / 224 kbps / ДЗ / DubLiCat
Language                                 : Ukrainian
Service kind                             : Complete Main
Default                                  : Yes
Forced                                   : Yes

Audio #2
ID                                       : 3
Format                                   :
Format/Info                              : Digital Theater Systems
Codec ID                                 : A_DTS
Duration                                 : 2 h 1 min
Bit rate mode                            : Constant
Bit rate                                 : 1 509 kb/s
Channel(s)                               : 6 channels
Channel layout                           : C L R Ls Rs LFE
Sampling rate                            : 48.0 kHz
Frame rate                               : 93.750 FPS (512 SPF)
Bit depth                                : 24 bits
Compression mode                         : Lossy
Stream size                              : 1.28 GiB (17%)
Title                                    : / 5.1 Ch / 1509 kbps / Original
Language                                 : English
Default                                  : No
Forced                                   : No

Text #1
ID                                       : 4
Format                                   : UTF-8
Codec ID                                 : S_TEXT/UTF8
Codec ID/Info                            : UTF-8 Plain Text
Duration                                 : 1 h 56 min
Bit rate                                 : 22 b/s
Count of elements                        : 479
Stream size                              : 19.0 KiB (0%)
Title                                    : Full by ukrrku
Language                                 : Ukrainian
Default                                  : Yes
Forced                                   : No

Text #2
ID                                       : 5
Format                                   : UTF-8
Codec ID                                 : S_TEXT/UTF8
Codec ID/Info                            : UTF-8 Plain Text
Duration                                 : 1 h 46 min
Bit rate                                 : 16 b/s
Count of elements                        : 496
Stream size                              : 12.6 KiB (0%)
Title                                    : Full
Language                                 : English
Default                                  : No
Forced                                   : No

Text #3
ID                                       : 6
Format                                   : UTF-8
Codec ID                                 : S_TEXT/UTF8
Codec ID/Info                            : UTF-8 Plain Text
Duration                                 : 1 h 59 min
Bit rate                                 : 18 b/s
Count of elements                        : 697
Stream size                              : 16.1 KiB (0%)
Title                                    : SDH
Language                                 : English
Default                                  : No
Forced                                   : No

Text #4
ID                                       : 7
Format                                   : UTF-8
Codec ID                                 : S_TEXT/UTF8
Codec ID/Info                            : UTF-8 Plain Text
Duration                                 : 1 h 59 min
Bit rate                                 : 27 b/s
Count of elements                        : 697
Stream size                              : 23.8 KiB (0%)
Title                                    : SDH-Colored
Language                                 : English
Default                                  : No
Forced                                   : No

Menu
00:00:00.000                             : :00:00:00.000
00:11:14.799                             : :00:11:14.799
00:21:25.826                             : :00:21:25.826
00:34:30.235                             : :00:34:30.235
00:51:18.158                             : :00:51:18.158
01:04:38.500                             : :01:04:38.500
01:08:57.341                             : :01:08:57.342
01:16:49.647                             : :01:16:49.647
01:26:33.980                             : :01:26:33.980
01:36:26.656                             : :01:36:26.656
01:47:46.085                             : :01:47:46.085
01:57:05.018                             : :01:57:05.018
Світлини




Джерело: &
Особиста оцінка: 0 - не дивився


Авторський реліз (завантажувати можна без реєстрації)
 Трекер:    Зареєстрований   

Завантажити / скачати фільм українською



відео для новачків



 Зареєстрований:   2019-08-06 23:55
 Розмір:   7.51 GB 
 Оцінка фільму:   10/10 (Голосів: 2)
   
Інші релізи
   Менді / Mandy (2018) 1080p Ukr/Eng | Sub Ukr/Eng -Star-Lord-  7 / 0   9.49 GB   2019-08-07 00:00 
   Менді / Mandy (2018) AVC Ukr/Eng | Sub Ukr/Eng -Star-Lord-  8 / 0   2.73 GB   2019-08-06 22:08 
   Менді / Mandy (2018) Ukr/Eng | Sub Ukr/Eng -Star-Lord-  11 / 1   1.57 GB   2019-08-06 22:06 
   Менді / Mandy (2018) 720p Ukr/Eng dragheart  3 / 0   4.82 GB   2018-10-15 18:27 
   Менді / Mandy (2018) Eng | Sub Ukr ukrrku  4 / 0   1.58 GB   2018-09-18 09:04 
Ваш часовий пояс: GMT + 2 Години

Нова тема   Відповісти