Парк атракціонів (Eld & lågor) / Swoon (2019) AVC

Нові коментарі

Нова тема   Відповісти
Автор Повідомлення
Anonymous 







2019-08-06 22:15  
Парк атракціонів (Eld & lågor) / Swoon (2019) AVC



Жанр: романтичний, мелодрама
Країна: Швеція



Кінокомпанія: Atmo Production
Режисер: Манс Марлінд, Бйорн Стейн
Актори: Альбен Ґренгольм, Фріда Ґуставссон, Едвін Ендре, Пернілла Ауґуст, Роберт Ґустафссон, Леннарт Якель, Гелена Аф Сандеберґ, Сергій Онопко, Інга Авемо Ходелл, Фредерік Хіллер та інші

Сюжет:
Події розгортаються у Стокгольмі незадовго до початку Другої світової війни. У центрі міста діють два парки атракціонів. Вони суттєво відрізняються один від одного. Один із них розрахований на більш вимогливу публіку, яка має змогу сплатити чималі кошти за свої розваги. Інший – більш доступний за ціною, але намагається не відставати у якості та різноманітті пропонованих розваг. Власники парків роками ворогують між собою. Діти родин випадково зустрічаються та закохуються. Юнак та дівчина вбачають головну свою проблему у тому, як сказати таку приголомшливу новину батькам. Та увесь світ накриває значно більш шокуюча звістка, яка змінить життя кожного без виключення. Розпочалася Друга світова війна.


Тривалість: 01:43:48
Якість: AVC
Відео:
кодек:
розмір кадру: 1024x428
бітрейт: ~ 2121 Кб/с

Аудіо # 1:
мова: українська
переклад: багатоголосий закадровий
кодек: 5.1
бітрейт: 384 кб/с
Info
Код:
General
Complete name                            : Swoon (2019) AVC [Ukr] [Video_Hurtom].
Format                                   :
Format version                           : Version 4
File size                                : 1.82 GiB
Duration                                 : 1 h 43 min
Overall bit rate                         : 2 506 kb/s
Movie name                               : Парк атракціонів (Eld & lågor) / Swoon (2019)
Encoded date                             : UTC 2020-03-26 11:18:56
Writing application                      : v30.1.0 ('Forever And More') 64-bit
Writing library                          : libebml v1.3.6 + v1.4.9
Cover                                    : Yes
Attachments                              : cover.jpg

Video
ID                                       : 1
Format                                   : AVC
Format/Info                              : Advanced Video Codec
Format profile                           : [email protected]
Format settings                          : CABAC / 9 Ref Frames
Format settings, CABAC                   : Yes
Format settings, RefFrames               : 9 frames
Codec ID                                 : V_MPEG4/ISO/AVC
Duration                                 : 1 h 43 min
Bit rate                                 : 2 121 kb/s
Width                                    : 1 024 pixels
Height                                   : 428 pixels
Display aspect ratio                     : 2.40:1
Frame rate mode                          : Constant
Frame rate                               : 24.000 FPS
Color space                              : YUV
Chroma subsampling                       : 4:2:0
Bit depth                                : 8 bits
Scan type                                : Progressive
Bits/(Pixel*Frame)                       : 0.202
Stream size                              : 1.54 GiB (85%)
Title                                    : #stillet
Writing library                          : core 152 r2851bm ba24899
Encoding settings                        : cabac=1 / ref=9 / deblock=1:-3:-3 / analyse=0x3:0x113 / me=umh / subme=11 / psy=1 / psy_rd=1.00:0.15 / mixed_ref=1 / me_range=32 / chroma_me=1 / trellis=2 / 8x8dct=1 / cqm=0 / deadzone=21,11 / fast_pskip=0 / chroma_qp_offset=-3 / threads=8 / lookahead_threads=3 / sliced_threads=0 / nr=0 / decimate=0 / interlaced=0 / bluray_compat=0 / constrained_intra=0 / bframes=10 / b_pyramid=2 / b_adapt=2 / b_bias=0 / direct=3 / weightb=1 / open_gop=0 / weightp=2 / keyint=240 / keyint_min=23 / scenecut=40 / intra_refresh=0 / rc=2pass / mbtree=0 / bitrate=2121 / ratetol=1.0 / qcomp=0.60 / qpmin=0 / qpmax=69 / qpstep=4 / cplxblur=20.0 / qblur=0.5 / ip_ratio=1.40 / pb_ratio=1.30 / aq=1:1.00
Language                                 : German
Default                                  : Yes
Forced                                   : No

Audio
ID                                       : 2
Format                                   : AC-3
Format/Info                              : Audio Coding 3
Commercial name                          : Dolby Digital
Codec ID                                 : A_AC3
Duration                                 : 1 h 43 min
Bit rate mode                            : Constant
Bit rate                                 : 384 kb/s
Channel(s)                               : 6 channels
Channel layout                           : L R C LFE Ls Rs
Sampling rate                            : 48.0 kHz
Frame rate                               : 31.250 FPS (1536 SPF)
Bit depth                                : 16 bits
Compression mode                         : Lossy
Stream size                              : 285 MiB (15%)
Title                                    : 5.1 | 384
Language                                 : Ukrainian
Service kind                             : Complete Main
Default                                  : Yes
Forced                                   : No

Menu
00:00:00.000                             : :Chapter 01
00:05:08.558                             : :Chapter 02
00:10:35.468                             : :Chapter 03
00:15:46.946                             : :Chapter 04
00:19:35.257                             : :Chapter 05
00:25:14.805                             : :Chapter 06
00:29:25.764                             : :Chapter 07
00:34:20.558                             : :Chapter 08
00:39:46.968                             : :Chapter 09
00:45:01.741                             : :Chapter 10
00:49:07.611                             : :Chapter 11
00:53:40.926                             : :Chapter 12
00:56:36.560                             : :Chapter 13
01:00:01.014                             : :Chapter 14
01:03:45.947                             : :Chapter 15
01:06:02.458                             : :Chapter 16
01:10:54.584                             : :Chapter 17
01:18:09.476                             : :Chapter 18
01:20:21.316                             : :Chapter 19
01:21:11.325                             : :Chapter 20
[



Джерело:


 Трекер:    Зареєстрований   

Завантажити / скачати фільм українською



відео для новачків



 Зареєстрований:   2020-03-26 14:26
 Розмір:   1.82 GB 
 Оцінка фільму:   9.8/10 (Голосів: 20)
   
Інші релізи
tereika 
Частий відвідувач


З нами з: 04.01.12
Востаннє: 03.04.20
Повідомлень: 32

2019-08-11 15:28  
Гарний фільм. Рекомендую.
andriy_nv 
VIP


З нами з: 27.06.08
Востаннє: 09.04.20
Повідомлень: 1013

2019-08-13 15:21  
таке собі
skarbik 
Новенький


З нами з: 03.01.13
Востаннє: 09.04.20
Повідомлень: 2

2019-08-15 17:13  
прикольно з елементами психоделії..
andrey_romanchyk 
Новенький


З нами з: 27.03.17
Востаннє: 06.04.20
Повідомлень: 1

2019-08-17 22:22  
норм
Anonymous 







2020-03-27 01:13  
Оновлено до
Ваш часовий пояс: GMT + 2 Години

Нова тема   Відповісти