Менді / Mandy (2018) Ukr/Eng | Sub Ukr/Eng

Нові коментарі

Нова тема   Відповісти
Автор Повідомлення
Anonymous 







2019-08-06 22:06  
Менді / Mandy (2018) Ukr/Eng | Sub Ukr/Eng

Менді / Mandy (2018) Ukr/Eng | Sub Ukr/Eng


Жанр: артхаус, трилер, жахи
Країна: США, Бельгія
Кінокомпанія: SpectreVision, Umedia, Legion M
Режисер: Панос Косматос
Актори: Ніколас Кейдж, Андреа Райзборо, Лайнас Роуч, Нед Деннехі

Сюжет:
Події фільму розгортаються в 1983 році. Це історія Реда Міллера - звичайного дроворуба, який жив зі своєю коханою Менді в лісі недалеко від озера. Але їх ідеальне життя було зруйновано, коли в їхній будинок несподівано вторглися прихильники жахливого культу. За дорученням свого лідера Джеремайя вони накачали Менді сильними наркотиками та провели ритуальне спалення, а Реда піддали жорстоким тортурам і майже вбили. Засліплений бажанням помсти, Ред озброюється величезною сокирою і відправляється по сліду культистів, поступово впадаючи в криваве безумство.

Тривалість: 02:01:02
Якість:

Відео:
кодек:
розмір кадру: 720 x 304
бітрейт: 1 179 кб/с

Аудіо # 1:
мова: українська
переклад: двоголосий закадровий | DubLiCat
кодек: AC-3 2.0
бітрейт: 224 кб/с

Аудіо # 2:
мова: англійська
переклад: оригінал
кодек: AC-3 5.1
бітрейт: 448 кб/с

Субтитри # 1: (Full by ukrrku)
мова: українська
тип: програмні (м'які)
формат: *.srt

Субтитри # 2-4: (Full, SDH, SDH-Colored)
мова: англійська
тип: програмні (м'які)
формат: *.srt


Info
Код:
General
Unique ID                                : 48965310183817787510694927847665378044 (0x24D6602EA81366CFE7FBD9A918B722FC)
Complete name                            : Mandy (2018) [UKR_ENG] [Hurtom].
Format                                   :
Format version                           : Version 4
File size                                : 1.57 GiB
Duration                                 : 2 h 1 min
Overall bit rate                         : 1 853 kb/s
Movie name                               : Менді / Mandy (2018)
Encoded date                             : UTC 2019-08-06 18:54:54
Writing application                      : v20.0.0 ('I Am The Sun') 64-bit
Writing library                          : libebml v1.3.5 + v1.4.8
Cover                                    : Yes
Attachments                              : Cover.png

Video
ID                                       : 1
Format                                   : MPEG-4 Visual
Format profile                           : Advanced [email protected]
Format settings                          : BVOP2
Format settings, BVOP                    : 2
Format settings, QPel                    : No
Format settings, GMC                     : No warppoints
Format settings, Matrix                  : Default (H.263)
Muxing mode                              : Packed bitstream
Codec ID                                 : V_MS/VFW/FOURCC /
Codec ID/Hint                            :
Duration                                 : 2 h 1 min
Bit rate                                 : 1 179 kb/s
Width                                    : 720 pixels
Height                                   : 304 pixels
Display aspect ratio                     : 2.35:1
Frame rate mode                          : Constant
Frame rate                               : 23.976 (23976/1000) FPS
Color space                              : YUV
Chroma subsampling                       : 4:2:0
Bit depth                                : 8 bits
Scan type                                : Progressive
Compression mode                         : Lossy
Bits/(Pixel*Frame)                       : 0.225
Stream size                              : 1 021 MiB (64%)
Title                                    : Менді / Mandy (2018)
Writing library                          : 66
Default                                  : Yes
Forced                                   : No

Audio #1
ID                                       : 2
Format                                   : AC-3
Format/Info                              : Audio Coding 3
Commercial name                          : Dolby Digital
Codec ID                                 : A_AC3
Duration                                 : 2 h 1 min
Bit rate mode                            : Constant
Bit rate                                 : 224 kb/s
Channel(s)                               : 2 channels
Channel layout                           : L R
Sampling rate                            : 48.0 kHz
Frame rate                               : 31.250 FPS (1536 SPF)
Bit depth                                : 16 bits
Compression mode                         : Lossy
Stream size                              : 194 MiB (12%)
Title                                    : / 2.0 Ch / 224 kbps / ДЗ / DubLiCat
Language                                 : Ukrainian
Service kind                             : Complete Main
Default                                  : Yes
Forced                                   : Yes

Audio #2
ID                                       : 3
Format                                   : AC-3
Format/Info                              : Audio Coding 3
Commercial name                          : Dolby Digital
Codec ID                                 : A_AC3
Duration                                 : 2 h 1 min
Bit rate mode                            : Constant
Bit rate                                 : 448 kb/s
Channel(s)                               : 6 channels
Channel layout                           : L R C LFE Ls Rs
Sampling rate                            : 48.0 kHz
Frame rate                               : 31.250 FPS (1536 SPF)
Bit depth                                : 16 bits
Compression mode                         : Lossy
Stream size                              : 388 MiB (24%)
Title                                    : / 5.1 Ch / 448 kbps / Original
Language                                 : English
Service kind                             : Complete Main
Default                                  : No
Forced                                   : No

Text #1
ID                                       : 4
Format                                   : UTF-8
Codec ID                                 : S_TEXT/UTF8
Codec ID/Info                            : UTF-8 Plain Text
Duration                                 : 1 h 56 min
Bit rate                                 : 22 b/s
Count of elements                        : 479
Stream size                              : 19.0 KiB (0%)
Title                                    : Full by ukrrku
Language                                 : Ukrainian
Default                                  : Yes
Forced                                   : No

Text #2
ID                                       : 5
Format                                   : UTF-8
Codec ID                                 : S_TEXT/UTF8
Codec ID/Info                            : UTF-8 Plain Text
Duration                                 : 1 h 46 min
Bit rate                                 : 16 b/s
Count of elements                        : 496
Stream size                              : 12.6 KiB (0%)
Title                                    : Full
Language                                 : English
Default                                  : No
Forced                                   : No

Text #3
ID                                       : 6
Format                                   : UTF-8
Codec ID                                 : S_TEXT/UTF8
Codec ID/Info                            : UTF-8 Plain Text
Duration                                 : 1 h 59 min
Bit rate                                 : 18 b/s
Count of elements                        : 697
Stream size                              : 16.1 KiB (0%)
Title                                    : SDH
Language                                 : English
Default                                  : No
Forced                                   : No

Text #4
ID                                       : 7
Format                                   : UTF-8
Codec ID                                 : S_TEXT/UTF8
Codec ID/Info                            : UTF-8 Plain Text
Duration                                 : 1 h 59 min
Bit rate                                 : 27 b/s
Count of elements                        : 697
Stream size                              : 23.8 KiB (0%)
Title                                    : SDH-Colored
Language                                 : English
Default                                  : No
Forced                                   : No

Menu
00:00:00.000                             : :00:00:00.000
00:11:14.799                             : :00:11:14.799
00:21:25.826                             : :00:21:25.826
00:34:30.235                             : :00:34:30.235
00:51:18.158                             : :00:51:18.158
01:04:38.500                             : :01:04:38.500
01:08:57.341                             : :01:08:57.342
01:16:49.647                             : :01:16:49.647
01:26:33.980                             : :01:26:33.980
01:36:26.656                             : :01:36:26.656
01:47:46.085                             : :01:47:46.085
01:57:05.018                             : :01:57:05.018
Світлини




Джерело: &
Особиста оцінка: 0 - не дивився


Авторський реліз (завантажувати можна без реєстрації)
 Трекер:    Зареєстрований   

Завантажити / скачати фільм українською



відео для новачків



 Зареєстрований:   2019-08-06 22:06
 Розмір:   1.57 GB 
 Оцінка фільму:   8.9/10 (Голосів: 8)
   
Інші релізи
   Менді / Mandy (2018) 1080p Ukr/Eng | Sub Ukr/Eng -Star-Lord-  7 / 0   9.49 GB   2019-08-07 00:00 
   Менді / Mandy (2018) 720p Ukr/Eng | Sub Ukr/Eng -Star-Lord-  5 / 0   7.51 GB   2019-08-06 23:55 
   Менді / Mandy (2018) AVC Ukr/Eng | Sub Ukr/Eng -Star-Lord-  8 / 0   2.73 GB   2019-08-06 22:08 
   Менді / Mandy (2018) 720p Ukr/Eng dragheart  3 / 0   4.82 GB   2018-10-15 18:27 
   Менді / Mandy (2018) Eng | Sub Ukr ukrrku  4 / 0   1.58 GB   2018-09-18 09:04 
testline 
Новенький


З нами з: 01.08.17
Востаннє: 23.08.19
Повідомлень: 1

2019-08-09 07:40  
Панос Косматос Cry (2)
xz_SLIM_zx 
VIP


З нами з: 15.03.12
Востаннє: 23.08.19
Повідомлень: 385

2019-08-11 00:53  
Ого, для Кейджа оцінка вище 5 за фільми останніх років п'ять точно - це дууууже добре. В закладки вліпив, якось гляну
Ваш часовий пояс: GMT + 2 Години

Нова тема   Відповісти