Роман у джунглях (Romancing the Jungle) / Eva über Bord (2017) 720p Ukr/Ger

Нові коментарі

Нова тема   Відповісти
Автор Повідомлення
Anonymous 







2019-08-06 21:46  
Роман у джунглях (Romancing the Jungle) / Eva über Bord (2017) 720p Ukr/Ger

Роман у джунглях (Romancing the Jungle) / Eva über Bord (2017) 720p Ukr/Ger


Жанр: пригодницький, комедія
Країна: Німеччина



Кінокомпанія: TNF Tele-Norm-Film GmbH
Режисер: Петер Герсіна / Peter Gersina
Актори: Пітер Бенедикт, Гартман Юлія, Штефан Лука, Ампорн Панкраток, Чарлі Руедпоканон, Нільс-Бруно Шмідт

Сюжет:
Журналістка-початківець Єва Казінскі отримує від своєї газети перше важлива завдання - написати репортаж про рейс німецького контейнеровоза "Ліберті" з Банкгока в Гамбург. Але вже через пару днів після захоплення судна малайськими піратами приємна морська подорож перетворилося для неї в справжній кошмар...


Тривалість: 01:41:55
Якість:
Відео:
кодек:
розмір кадру: 1280 х 720
бітрейт: 3584 кб/с

Аудіо # 1:
мова: українська
переклад: професійний дубльований
кодек: 2.0
бітрейт: 192 кб/с

Аудіо # 2:
мова: німецька
переклад: оригінал
кодек: 2.0
бітрейт: 192 кб/с

Джерело озвучення:
Info
General
Unique ID : 240870547703467277406844142575265101201 (0xB535FAE4D6C956035CFAA279092DB591)
Complete name : Eva über Bord (2017) 720p [Hurtom].
Format :
Format version : Version 4
File size : 2.74 GiB
Duration : 1 h 41 min
Overall bit rate : 3 845 kb/s
Movie name : Роман у джунглях (2017)
Encoded date : UTC 2019-08-05 22:33:46
Writing application : v30.1.0 ('Forever And More') 32-bit
Writing library : libebml v1.3.6 + v1.4.9
Cover : Yes
Attachments : cover.jpg

Video
ID : 1
Format : AVC
Format/Info : Advanced Video Codec
Format profile : [email protected]
Format settings : CABAC / 5 Ref Frames
Format settings, CABAC : Yes
Format settings, ReFrames : 5 frames
Codec ID : V_MPEG4/ISO/AVC
Duration : 1 h 41 min
Bit rate mode : Constant
Bit rate : 3 584 kb/s
Width : 1 280 pixels
Height : 720 pixels
Display aspect ratio : 16:9
Frame rate mode : Constant
Frame rate : 25.000 FPS
Standard : PAL
Color space : YUV
Chroma subsampling : 4:2:0
Bit depth : 8 bits
Scan type : Progressive
Bits/(Pixel*Frame) : 0.156
Stream size : 2.46 GiB (90%)
Language : German
Default : Yes
Forced : No
Color range : Limited
Color primaries : BT.709
Transfer characteristics : BT.709
Matrix coefficients : BT.709

Audio #1
ID : 2
Format : AC-3
Format/Info : Audio Coding 3
Commercial name : Dolby Digital
Codec ID : A_AC3
Duration : 1 h 41 min
Bit rate mode : Constant
Bit rate : 192 kb/s
Channel(s) : 2 channels
Channel layout : L R
Sampling rate : 48.0 kHz
Frame rate : 31.250 FPS (1536 SPF)
Bit depth : 16 bits
Compression mode : Lossy
Delay relative to video : -80 ms
Stream size : 140 MiB (5%)
Language : Ukrainian
Service kind : Complete Main
Default : Yes
Forced : Yes

Audio #2
ID : 3
Format : LC
Format/Info : Advanced Audio Codec Low Complexity
Codec ID : A_AAC-2
Duration : 1 h 41 min
Bit rate : 192 kb/s
Channel(s) : 2 channels
Channel layout : L R
Sampling rate : 48.0 kHz
Frame rate : 46.875 FPS (1024 SPF)
Compression mode : Lossy
Delay relative to video : -80 ms
Stream size : 138 MiB (5%)
Language : German
Default : No
Forced : No
Скріншоти






Джерело:
За запис звуку з ТБ дякуємо пану Bohdan237


 Трекер:    Зареєстрований   

Завантажити / скачати фільм українською



відео для новачків



 Зареєстрований:   2019-08-06 21:46
 Розмір:   2.74 GB 
 Оцінка фільму:   8.9/10 (Голосів: 8)
   
Інші релізи
Electroz 
Відео Гуртом - підтримка та поширення
Відео Гуртом - підтримка та поширення


З нами з: 18.09.14
Востаннє: 24.09.20
Повідомлень: 4023

2020-01-11 03:30  
Anonymous написано:

HDTV

Ваш часовий пояс: GMT + 2 Години

Нова тема   Відповісти