З Днем народження, Україно! (2018) 1080p | Pop

Нові коментарі

Нова тема   Відповісти
Автор Повідомлення
sergiyko.5 
VIP


З нами з: 25.02.16
Востаннє: 23.08.19
Повідомлень: 2443

2019-08-06 10:39  
З Днем народження, Україно! (2018) 1080p | Pop

З Днем народження, Україно! (2018) 1080p | Pop

Стиль: Pop
Країна: Україна

Виконавці: Тіна Кароль, Олег Винник, Оля Полякова, MONATIK, Ніна Матвієнко, TAYANNA, Макс Барських, ALEKSEEV, Сергій Бабкін, THE HARDKISS, гурти «НЕАНГЕЛИ», «ТІК» та «Антитіла», Alyosha, TARABAROVA, KADNAY, Freedom-jazz та Альона Вінницька

Тривалість: 01:49:00
Якість:

Відео: кодек: розмір кадру: 1920 х 1080 бітрейт: 2745 кб/с
Аудіо: мова: українська кодек: 2.0 бітрейт: 128 кб/с
Про файл:
General
Unique ID : 278100042162487876365451654334050986495 (0xD1381EB0096D8B7254F60AC35A73E9FF)
Complete name : E:\content\З Днем народження,Україно!2018..1080p.
Format :
Format version : Version 4
File size : 2.19 GiB
Duration : 1 h 49 min
Overall bit rate : 2 873 kb/s
Movie name : by sergiyko
Encoded date : UTC 2019-08-06 07:34:15
Writing application : v35.0.0 ('All The Love In The World') 64-bit
Writing library : libebml v1.3.9 + v1.5.2
Cover : Yes
Attachments : cover.jpeg

Video
ID : 1
Format : AVC
Format/Info : Advanced Video Codec
Format profile : [email protected]
Format settings : CABAC / 3 Ref Frames
Format settings, CABAC : Yes
Format settings, Reference : 3 frames
Codec ID : V_MPEG4/ISO/AVC
Duration : 1 h 49 min
Bit rate : 2 745 kb/s
Width : 1 920 pixels
Height : 1 080 pixels
Display aspect ratio : 16:9
Frame rate mode : Constant
Frame rate : 25.000 FPS
Color space : YUV
Chroma subsampling : 4:2:0
Bit depth : 8 bits
Scan type : Progressive
Bits/(Pixel*Frame) : 0.053
Stream size : 2.09 GiB (96%)
Language : Ukrainian
Default : Yes
Forced : No
Color range : Limited
Color primaries : BT.709
Transfer characteristics : BT.709
Matrix coefficients : BT.709

Audio
ID : 2
Format : LC
Format/Info : Advanced Audio Codec Low Complexity
Codec ID : A_AAC-2
Duration : 1 h 49 min
Bit rate : 126 kb/s
Channel(s) : 2 channels
Channel layout : L R
Sampling rate : 44.1 kHz
Frame rate : 43.066 FPS (1024 SPF)
Compression mode : Lossy
Delay relative to video : 82 ms
Stream size : 97.9 MiB (4%)
Language : Ukrainian
Default : Yes
Forced : No
Скріншоти:


https://www.youtube.com/watch?v=mXMxBO9HoW0


Золотий реліз (завантажене не впливає на рейтинг)
 Трекер:    Зареєстрований   

Завантажити / скачати кліп українською



відео для новачків



 Зареєстрований:   2019-08-06 10:39
 Розмір:   2.19 GB 
 Оцінка кліпу:   9.3/10 (Голосів: 3)
   
Ваш часовий пояс: GMT + 2 Години

Нова тема   Відповісти