Брайтбьорн / Brightburn (2019) 1080p Ukr/Eng | Sub Ukr/Eng

Нові коментарі

Нова тема   Відповісти
Автор Повідомлення
Anonymous 







2019-08-05 19:09  
Брайтбьорн / Brightburn (2019) 1080p Ukr/Eng | Sub Ukr/Eng



Жанр: жахи, фантастика
Країна: США



Кінокомпанія: Sony Pictures Worldwide Acquisitions (SPWA), The H Collective, Troll Court Entertainment
Режисер: Девід Яровескі
Актори: Елізабет Бенкс, Девід Денман, Джексон А. Данн, Абрахам Клінкскейлз, Метт Джонс, Мередіт Гагнер, Беккі Волстром

Сюжет:
Одного разу вночі дружина, яка давно не може завагітніти, знаходить в лісі немовля, і вони з чоловіком вирішують, що їхні молитви були почуті, й беруть дитину до себе додому. Але у міру того, як він стає старшим, батьки починають помічати за сином щось дивне. Виявляється, він прибув з іншої планети, щоб стати героєм для людства, але в результаті стає чимось зловісним.


Тривалість: 01:30:30
Якість: 1080p
Відео:
кодек:
розмір кадру: 1920x804
бітрейт: 10500 кб/с

Аудіо # 1:
мова: українська
переклад: професійний дубльований
кодек: 5.1
бітрейт: 384 кб/с

Аудіо # 2:
мова: англійська
кодек: 5.1
бітрейт: 640 кб/с

Джерело озвучення:


Субтитри (Full):
мова: українська
тип: програмні (м'які)
формат: *.srt

Субтитри (Full):
мова: англійська
тип: програмні (м'які)
формат: *.srt
Info
Код:

General
Complete name                            : Brightburn (2019) 1080p [UKR_ENG] [ViDeO_Hurtom].
Format                                   :
Format version                           : Version 4
File size                                : 7.26 GiB
Duration                                 : 1 h 30 min
Overall bit rate                         : 11.5 Mb/s
Movie name                               : Brightburn (2019) 1080p [UKR_ENG] [ViDeO_Hurtom]
Encoded date                             : UTC 2019-08-15 19:03:45
Writing application                      : v30.1.0 ('Forever And More') 64-bit
Writing library                          : libebml v1.3.6 + v1.4.9

Video
ID                                       : 1
Format                                   : AVC
Format/Info                              : Advanced Video Codec
Format profile                           : [email protected]
Format settings                          : CABAC / 4 Ref Frames
Format settings, CABAC                   : Yes
Format settings, RefFrames               : 4 frames
Codec ID                                 : V_MPEG4/ISO/AVC
Duration                                 : 1 h 30 min
Bit rate                                 : 10.5 Mb/s
Width                                    : 1 920 pixels
Height                                   : 804 pixels
Display aspect ratio                     : 2.40:1
Frame rate mode                          : Constant
Frame rate                               : 23.976 (24000/1001) FPS
Color space                              : YUV
Chroma subsampling                       : 4:2:0
Bit depth                                : 8 bits
Scan type                                : Progressive
Bits/(Pixel*Frame)                       : 0.283
Stream size                              : 6.61 GiB (91%)
Title                                    : CHD
Writing library                          : core 157 r2867+150 7e91e0e t_mod_Custom_2 [[email protected] X86_64]
Encoding settings                        : cabac=1 / ref=4 / deblock=1:-3:-3 / analyse=0x3:0x133 / me=umh / subme=11 / psy=1 / fade_compensate=0.00 / psy_rd=1.00:0.00 / mixed_ref=1 / me_range=64 / chroma_me=1 / trellis=2 / 8x8dct=1 / cqm=0 / deadzone=21,11 / fast_pskip=0 / chroma_qp_offset=-3 / threads=24 / lookahead_threads=4 / sliced_threads=0 / nr=0 / decimate=1 / interlaced=0 / bluray_compat=0 / constrained_intra=0 / fgo=0 / bframes=8 / b_pyramid=2 / b_adapt=2 / b_bias=0 / direct=3 / weightb=1 / open_gop=0 / weightp=2 / keyint=250 / keyint_min=23 / scenecut=40 / intra_refresh=0 / rc=crf / mbtree=0 / crf=17.0000 / qcomp=0.70 / qpmin=0:0:0 / qpmax=69:69:69 / qpstep=4 / ip_ratio=1.40 / pb_ratio=1.30 / aq=3:1.00 / aq-sensitivity=10.00 / aq-factor=1.00:1.00:1.00 / aq2=0 / aq3=0
Language                                 : English
Default                                  : Yes
Forced                                   : No

Audio #1
ID                                       : 2
Format                                   : AC-3
Format/Info                              : Audio Coding 3
Commercial name                          : Dolby Digital
Codec ID                                 : A_AC3
Duration                                 : 1 h 30 min
Bit rate mode                            : Constant
Bit rate                                 : 384 kb/s
Channel(s)                               : 6 channels
Channel layout                           : L R C LFE Ls Rs
Sampling rate                            : 48.0 kHz
Frame rate                               : 31.250 FPS (1536 SPF)
Bit depth                                : 16 bits
Compression mode                         : Lossy
Stream size                              : 249 MiB (3%)
Title                                    : , 6 ch, 384 Кбт/с
Language                                 : Ukrainian
Service kind                             : Complete Main
Default                                  : Yes
Forced                                   : No

Audio #2
ID                                       : 3
Format                                   : AC-3
Format/Info                              : Audio Coding 3
Commercial name                          : Dolby Digital
Codec ID                                 : A_AC3
Duration                                 : 1 h 30 min
Bit rate mode                            : Constant
Bit rate                                 : 640 kb/s
Channel(s)                               : 6 channels
Channel layout                           : L R C LFE Ls Rs
Sampling rate                            : 48.0 kHz
Frame rate                               : 31.250 FPS (1536 SPF)
Bit depth                                : 16 bits
Compression mode                         : Lossy
Stream size                              : 414 MiB (6%)
Title                                    : , 6 ch, 640 Кбт/с
Language                                 : English
Service kind                             : Complete Main
Default                                  : No
Forced                                   : No

Text #1
ID                                       : 4
Format                                   : UTF-8
Codec ID                                 : S_TEXT/UTF8
Codec ID/Info                            : UTF-8 Plain Text
Duration                                 : 1 h 24 min
Bit rate                                 : 61 b/s
Count of elements                        : 892
Stream size                              : 38.3 KiB (0%)
Title                                    : Full [iTunes Ukrainian]
Language                                 : Ukrainian
Default                                  : No
Forced                                   : No

Text #2
ID                                       : 5
Format                                   : UTF-8
Codec ID                                 : S_TEXT/UTF8
Codec ID/Info                            : UTF-8 Plain Text
Duration                                 : 1 h 27 min
Bit rate                                 : 44 b/s
Count of elements                        : 1036
Stream size                              : 28.2 KiB (0%)
Title                                    : Full
Language                                 : English
Default                                  : No
Forced                                   : No

Menu
00:00:00.000                             : :绗?01 绔?
00:03:20.700                             : :绗?02 绔?
00:07:04.633                             : :绗?03 绔?
00:12:30.792                             : :绗?04 绔?
00:17:47.066                             : :绗?05 绔?
00:24:23.170                             : :绗?06 绔?
00:30:28.910                             : :绗?07 绔?
00:38:06.784                             : :绗?08 绔?
00:43:11.672                             : :绗?09 绔?
00:49:25.796                             : :绗?10 绔?
00:56:53.535                             : :绗?11 绔?
01:00:12.359                             : :绗?12 绔?
01:05:22.127                             : :绗?13 绔?
01:08:16.092                             : :绗?14 绔?
01:12:20.586                             : :绗?15 绔?
01:17:28.894                             : :绗?16 绔?
Скріншоти



Джерело: &
Особиста оцінка: 0 - не дивився


Золотий реліз (завантажене не впливає на рейтинг)
 Трекер:    Зареєстрований   

Завантажити / скачати фільм українською



відео для новачків



 Зареєстрований:   2019-08-15 22:28
 Розмір:   7.26 GB 
 Оцінка фільму:   9.2/10 (Голосів: 34)
   
Інші релізи
   Брайтбьорн / Brightburn (2019) AVC Ukr/Eng | Sub Ukr/Eng 11FrYkT  5 / 0   1.7 GB   2019-08-17 22:52 
   Брайтбьорн / Brightburn (2019) UHD Remux 4K 2160p HDR H.265 Ukr/Eng | Sub Ukr/Eng antik_2008  8 / 0   39.64 GB   2019-08-15 20:59 
   Брайтбьорн / Brightburn (2019) antik_2008  15 / 1   1.45 GB   2019-08-15 20:50 
   Брайтбьорн / Brightburn (2019) 720p Ukr/Eng | Sub Ukr/Eng 11FrYkT  18 / 0   2.34 GB   2019-08-06 22:51 
kosaniak 
Новенький


З нами з: 04.09.13
Востаннє: 17.08.19
Повідомлень: 6

2019-08-06 16:10  
Дуже слабенький фільм. 3/10
MakRA 
VIP


З нами з: 11.11.18
Востаннє: 18.08.19
Повідомлень: 329

2019-08-06 23:52  
Доволі непоганий фільм у стилі "хоррор". На шедевр не тягне, але глянути можна. Не дивлячись на дуууже мізерний бюджет, сподобався. Happy
Estranded 
VIP


З нами з: 09.02.14
Востаннє: 17.08.19
Повідомлень: 1394

2019-08-09 15:34  
Неочікувано хороший фільм. Початок був доволі нудним, а ближче до кінця події стають дійсно цікавими. Персонажі непогано розкриті. Акторка Елізабет Бенкс - дуже красива, приємно споглядатиHappy

Стрічка дійсно кривава, був момент, коли відвертався від екрану. Такий собі альтернативний погляд на супермена. От, якби такий супермен від DC був, з рейтингом R 18+.

7/10 — варто глянути!

hitmanhunter 
Свій


З нами з: 15.09.16
Востаннє: 16.08.19
Повідомлень: 105

2019-08-09 20:50  
Estranded написано:
Стрічка дійсно кривава, був момент, коли відвертався від екрану.

якщо це "кривава", тоді "Saw" не раджу дивится)))

п.с. 4/10, фільм дурня.

Estranded 
VIP


З нами з: 09.02.14
Востаннє: 17.08.19
Повідомлень: 1394

2019-08-10 12:45  
hitmanhunter
В пилі часто криваві моменти приховували, а тут чітко показано без трюків з камерою.

ВАВУНЯ 
VIP


З нами з: 30.06.15
Востаннє: 17.08.19
Повідомлень: 262

2019-08-10 13:27  
коли чекати на Remux 1080p?
дякую.

Anonymous 







2019-08-15 22:29  
Торент оновлено. Заміна на 1080p
stryiko 
Свій


З нами з: 18.08.09
Востаннє: 16.08.19
Повідомлень: 65

2019-08-16 00:41  
Ох ця дурна звичка передавати деякі англійські звуки через москальське "йо" мене аж бісить... розумію що не автор це вигадав, але наслідувати москалів все ж не варто, бо girl не гьорл і не гйорл, а burn не бьорн, берн... москалі скрізь втискають своє "ісконна руСССкає" йо... в них це навіть узаконено) та мені це страшенно ріже слух...
archi86 
Свій


З нами з: 06.01.15
Востаннє: 17.08.19
Повідомлень: 132

2019-08-16 14:33  
Хто дивився, вартий перегляду?
redcit 
VIP


З нами з: 21.12.10
Востаннє: 18.08.19
Повідомлень: 725

2019-08-17 22:08  
Така хороша ідея була і ніякий фільм у підсумку
Ваш часовий пояс: GMT + 2 Години

Нова тема   Відповісти