Месники: Завершення / Avengers: Endgame (2019) Remux 1080p Ukr/Eng | Sub Eng

Нові коментарі

Нова тема   Відповісти
Автор Повідомлення
Anonymous 







2019-08-04 22:00  


Месники: Завершення / Avengers: Endgame (2019) Remux 1080p Ukr/Eng | Sub Eng






Альтернативний постер



«Частина подорожі - це кінець»



Жанр: бойовик, пригоди, фантастика, фентезі
Країна: США





Кінокомпанія: Brazil Production Services, Double Negative (DNEG), Marvel Studios
Режисер: Ентоні Руссо, Джо Руссо
Актори: Роберт Дауні мол., Кріс Еванс, Марк Руффало, Кріс Гемсворт, Скарлетт Йоханссон, Джеремі Реннер, Дон Чідл, Пол Радд, Чедвік Боузман, Брі Ларсон

Сюжет:
Месники і Вартові Галактики вступають в останню стадію війни з Таносом, який володіє всемогутньою Рукавичкою Нескінченності. Гряде фінальна битва між силами героїв і Божевільного Титана, що раз і назавжди визначить подальшу долю не тільки Землі, але і всього всесвіту.


Тривалість: 03:01:11
Якість: Remux 1080p

Відео:
кодек:
розмір кадру: 1920x1080
бітрейт: 23,2 Мб/с

Аудіо # 1:
мова: українська
переклад: професійний дубльований | студія LeDoyen
кодек: 5.1
бітрейт: 640 кб/с

Аудіо # 2:
мова: українська
переклад: професійний дубльований | студія LeDoyen
кодек: 5.1
бітрейт: 1536 кб/с

Аудіо # 3:
мова: українська
переклад: професійний дубльований | студія LeDoyen
кодек: -HD MA 5.1
бітрейт: 3815 кб/с

Аудіо # 4:
мова: англійська
переклад: оригінал
кодек: 5.1
бітрейт: 640 кб/с

Аудіо # 5:
мова: англійська
переклад: оригінал
кодек: -HD Master 7.1
бітрейт: 5028 кб/с

Аудіо # 6:
мова: англійська
переклад: оригінал
кодек: TrueHD 7.1
бітрейт: 4777 кб/с

Субтитри (Forced):
мова: українська
тип: програмні (м'які)
формат: *.srt

Субтитри (Full, SHD, SHD-Colored):
мова: англійська
тип: програмні (м'які)
формат: *.srt

Info
Код:
General
Complete name                            : Avengers_Endgame (2019) Remux [Ukr_Eng] [Video_Hurtom].
Format                                   :
Format version                           : Version 4
File size                                : 50.2 GiB
Duration                                 : 3 h 1 min
Overall bit rate mode                    : Variable
Overall bit rate                         : 39.7 Mb/s
Movie name                               : Avengers: Endgame (2019) Remux [Ukr_Eng] [Video_Hurtom]
Encoded date                             : UTC 2019-08-04 17:08:44
Writing application                      : v30.1.0 ('Forever And More') 64-bit
Writing library                          : libebml v1.3.6 + v1.4.9

Video
ID                                       : 1
Format                                   : AVC
Format/Info                              : Advanced Video Codec
Format profile                           : [email protected]
Format settings                          : CABAC / 4 Ref Frames
Format settings, CABAC                   : Yes
Format settings, RefFrames               : 4 frames
Codec ID                                 : V_MPEG4/ISO/AVC
Duration                                 : 3 h 1 min
Bit rate mode                            : Variable
Bit rate                                 : 23.2 Mb/s
Maximum bit rate                         : 34.0 Mb/s
Width                                    : 1 920 pixels
Height                                   : 1 080 pixels
Display aspect ratio                     : 16:9
Frame rate mode                          : Constant
Frame rate                               : 23.976 (24000/1001) FPS
Color space                              : YUV
Chroma subsampling                       : 4:2:0
Bit depth                                : 8 bits
Scan type                                : Progressive
Bits/(Pixel*Frame)                       : 0.466
Stream size                              : 29.3 GiB (58%)
Language                                 : English
Default                                  : Yes
Forced                                   : No

Audio #1
ID                                       : 2
Format                                   : AC-3
Format/Info                              : Audio Coding 3
Commercial name                          : Dolby Digital
Codec ID                                 : A_AC3
Duration                                 : 3 h 1 min
Bit rate mode                            : Constant
Bit rate                                 : 640 kb/s
Channel(s)                               : 6 channels
Channel layout                           : L R C LFE Ls Rs
Sampling rate                            : 48.0 kHz
Frame rate                               : 31.250 FPS (1536 SPF)
Bit depth                                : 16 bits
Compression mode                         : Lossy
Stream size                              : 829 MiB (2%)
Title                                    : , 6 ch, 640 Кбт/с
Language                                 : Ukrainian
Service kind                             : Complete Main
Default                                  : No
Forced                                   : No

Audio #2
ID                                       : 3
Format                                   :
Format/Info                              : Digital Theater Systems
Codec ID                                 : A_DTS
Duration                                 : 3 h 1 min
Bit rate mode                            : Constant
Bit rate                                 : 1 509 kb/s
Channel(s)                               : 6 channels
Channel layout                           : C L R Ls Rs LFE
Sampling rate                            : 48.0 kHz
Frame rate                               : 93.750 FPS (512 SPF)
Bit depth                                : 24 bits
Compression mode                         : Lossy
Stream size                              : 1.91 GiB (4%)
Title                                    : ,6 ch, 1536 Кбт/с
Language                                 : Ukrainian
Default                                  : No
Forced                                   : No

Audio #3
ID                                       : 4
Format                                   : XLL
Format/Info                              : Digital Theater Systems
Commercial name                          : -HD Master Audio
Codec ID                                 : A_DTS
Duration                                 : 3 h 1 min
Bit rate mode                            : Variable
Bit rate                                 : 3 815 kb/s
Channel(s)                               : 6 channels
Channel layout                           : C L R Ls Rs LFE
Sampling rate                            : 48.0 kHz
Frame rate                               : 93.750 FPS (512 SPF)
Bit depth                                : 24 bits
Compression mode                         : Lossless
Stream size                              : 4.83 GiB (10%)
Title                                    : -HD MA,6 ch, 3815 Кбт/с
Language                                 : Ukrainian
Default                                  : Yes
Forced                                   : No

Audio #4
ID                                       : 5
Format                                   : AC-3
Format/Info                              : Audio Coding 3
Commercial name                          : Dolby Digital
Codec ID                                 : A_AC3
Duration                                 : 3 h 1 min
Bit rate mode                            : Constant
Bit rate                                 : 640 kb/s
Channel(s)                               : 6 channels
Channel layout                           : L R C LFE Ls Rs
Sampling rate                            : 48.0 kHz
Frame rate                               : 31.250 FPS (1536 SPF)
Bit depth                                : 16 bits
Compression mode                         : Lossy
Stream size                              : 829 MiB (2%)
Title                                    : , 6 ch, 640 Кбт/с
Language                                 : English
Service kind                             : Complete Main
Default                                  : No
Forced                                   : No

Audio #5
ID                                       : 6
Format                                   : XLL
Format/Info                              : Digital Theater Systems
Commercial name                          : -HD Master Audio
Codec ID                                 : A_DTS
Duration                                 : 3 h 1 min
Bit rate mode                            : Variable
Bit rate                                 : 5 028 kb/s
Channel(s)                               : 8 channels
Channel layout                           : C L R LFE Lb Rb Lss Rss
Sampling rate                            : 48.0 kHz
Frame rate                               : 93.750 FPS (512 SPF)
Bit depth                                : 24 bits
Compression mode                         : Lossless
Stream size                              : 6.36 GiB (13%)
Title                                    : -HD MA, 8 ch, 5028 Кбт/с
Language                                 : English
Default                                  : No
Forced                                   : No

Audio #6
ID                                       : 7
Format                                   : MLP FBA 16-ch
Format/Info                              : Meridian Lossless Packing FBA with 16-channel presentation
Commercial name                          : Dolby TrueHD with Dolby Atmos
Codec ID                                 : A_TRUEHD
Duration                                 : 3 h 1 min
Bit rate mode                            : Variable
Bit rate                                 : 4 777 kb/s
Maximum bit rate                         : 8 430 kb/s
Channel(s)                               : 8 channels
Channel layout                           : L R C LFE Ls Rs Lb Rb
Sampling rate                            : 48.0 kHz
Frame rate                               : 1 200.000 FPS (40 SPF)
Compression mode                         : Lossless
Stream size                              : 6.05 GiB (12%)
Title                                    : TrueHD, 8 ch, 4777 Кбт/с
Language                                 : English
Default                                  : No
Forced                                   : No
Number of dynamic objects                : 13
Bed channel count                        : 1 channel
Bed channel configuration                : LFE

Text #1
ID                                       : 8
Format                                   : UTF-8
Codec ID                                 : S_TEXT/UTF8
Codec ID/Info                            : UTF-8 Plain Text
Duration                                 : 2 h 46 min
Bit rate                                 : 1 b/s
Count of elements                        : 46
Stream size                              : 1.77 KiB (0%)
Title                                    : Forced
Language                                 : Ukrainian
Default                                  : Yes
Forced                                   : No

Text #2
ID                                       : 9
Format                                   : UTF-8
Codec ID                                 : S_TEXT/UTF8
Codec ID/Info                            : UTF-8 Plain Text
Duration                                 : 2 h 47 min
Bit rate                                 : 49 b/s
Count of elements                        : 2329
Stream size                              : 61.1 KiB (0%)
Title                                    : Full
Language                                 : English
Default                                  : No
Forced                                   : No

Text #3
ID                                       : 10
Format                                   : UTF-8
Codec ID                                 : S_TEXT/UTF8
Codec ID/Info                            : UTF-8 Plain Text
Duration                                 : 3 h 0 min
Bit rate                                 : 51 b/s
Count of elements                        : 2630
Stream size                              : 68.3 KiB (0%)
Title                                    : SDH
Language                                 : English
Default                                  : No
Forced                                   : No

Text #4
ID                                       : 11
Format                                   : UTF-8
Codec ID                                 : S_TEXT/UTF8
Codec ID/Info                            : UTF-8 Plain Text
Duration                                 : 3 h 0 min
Bit rate                                 : 65 b/s
Count of elements                        : 2630
Stream size                              : 86.9 KiB (0%)
Title                                    : SDH Colored
Language                                 : English
Default                                  : No
Forced                                   : No

Menu
00:00:00.000                             : en:00:00:00.000
00:08:05.902                             : en:00:08:05.902
00:20:01.700                             : en:00:20:01.700
00:26:15.282                             : en:00:26:15.282
00:36:57.173                             : en:00:36:57.173
00:43:20.598                             : en:00:43:20.598
00:48:44.171                             : en:00:48:44.171
00:57:36.745                             : en:00:57:36.745
01:07:12.612                             : en:01:07:12.612
01:16:02.516                             : en:01:16:02.516
01:26:25.430                             : en:01:26:25.430
01:32:20.118                             : en:01:32:20.118
01:38:55.805                             : en:01:38:55.805
01:48:12.361                             : en:01:48:12.361
01:57:26.915                             : en:01:57:26.915
02:05:00.243                             : en:02:05:00.243
02:15:06.432                             : en:02:15:06.432
02:25:50.450                             : en:02:25:50.450
02:34:37.935                             : en:02:34:37.935
02:43:03.899                             : en:02:43:03.899
02:49:05.344                             : en:02:49:05.344

Скріншоти






Подяка пану Hanway за синхронізацію

Джерело:


Особиста оцінка: 8 - мені сподобалося


Золотий реліз (завантажене не впливає на рейтинг)
 Трекер:    Зареєстрований   

Завантажити / скачати фільм українською



відео для новачків



 Зареєстрований:   2019-08-04 22:00
 Розмір:   50.2 GB 
 Оцінка фільму:   9.6/10 (Голосів: 30)
   
adamantick 
Новенький


З нами з: 07.02.12
Востаннє: 23.08.19
Повідомлень: 15

2019-08-04 22:15  
найкращий фільм цього року!!!)
MakRA 
VIP


З нами з: 11.11.18
Востаннє: 24.08.19
Повідомлень: 340

2019-08-04 23:33  
adamantick написано:
найкращий фільм цього року!!!)

Так! Прекрасний фільм, сподобався! Можливо, це і не завершення історії (хто їх знає Happy , але дана кінцівка циклу теж супер!

Panther2214 
Забанено
Забанено


З нами з: 29.09.17
Востаннє: 14.08.19
Повідомлень: 279

2019-08-05 14:41  
Клюнув на те, що цей фільм зібрав рекордну суму по касовим зборам, обігнавши при цьому Аватар, що в ньому такого є??? Дуже розчарований побаченим і на що тут дивитися??? Три години коту під хвіст, три години нудьги, марвел деградує... У порівнянні з Алітою ця частина месників і поруч не стоїть, за що такий високий рейтинг??? Жахливе завершення коміксів про месників, без слів...
migelius 
Свій


З нами з: 29.02.08
Востаннє: 22.08.19
Повідомлень: 109

2019-08-05 16:56  
Дякую за реліз. А чи можна десь завантажити атмос окрему доріжку? Або усі доріжки?г
LastExile 
Новенький


З нами з: 25.09.10
Востаннє: 23.08.19
Повідомлень: 19

2019-08-05 19:34  
ААААААААААААААААААААААААААА!
КОЛИ 4К?!!!!!!!!!!!!!!!!!!!!!

igor911 
Модератор відео


З нами з: 18.01.08
Востаннє: 24.08.19
Повідомлень: 13167

2019-08-05 19:35  
LastExile написано:
КОЛИ 4К?

вчора https://toloka.to/t103082

archi86 
Свій


З нами з: 06.01.15
Востаннє: 23.08.19
Повідомлень: 132

2019-08-05 19:48  
50 ГБ це занадто, всі фільми в Remux до 30 ГБ цей чомусь 50
igor911 
Модератор відео


З нами з: 18.01.08
Востаннє: 24.08.19
Повідомлень: 13167

2019-08-05 19:54  
archi86 написано:
50 ГБ це занадто

занадто мало - для такого екшену та ефектів 23 Мб/с бітрейту відео виглядає дуже бюджетно
archi86 написано:
цей чомусь 50

понад 3 години тривалість, звук займає 42% "ваги"

MakRA 
VIP


З нами з: 11.11.18
Востаннє: 24.08.19
Повідомлень: 340

2019-08-05 19:54  
archi86
Три години йде фільм, три українські доріжки+оригінальні. Та й не всі ремукси до 30 Гб).

Anonymous 







2019-08-05 19:54  
archi86 написано:
50 ГБ це занадто, всі фільми в Remux до 30 ГБ цей чомусь 50

аудіо багато місця займає

LastExile 
Новенький


З нами з: 25.09.10
Востаннє: 23.08.19
Повідомлень: 19

2019-08-05 20:14  
igor911
Там бітрейт лажа.

igor911 
Модератор відео


З нами з: 18.01.08
Востаннє: 24.08.19
Повідомлень: 13167

2019-08-05 20:15  
LastExile написано:
Там бітрейт лажа.

напиши скаргу видавцям

LastExile 
Новенький


З нами з: 25.09.10
Востаннє: 23.08.19
Повідомлень: 19

2019-08-05 20:20  
igor911
Ахахахах, яка гарнюня!

Panther2214 
Забанено
Забанено


З нами з: 29.09.17
Востаннє: 14.08.19
Повідомлень: 279

2019-08-05 20:25  
LastExile

Гарнюня??? То вона чи як??? 👩

LastExile 
Новенький


З нами з: 25.09.10
Востаннє: 23.08.19
Повідомлень: 19

2019-08-05 20:26  
Якщо я не помиляюсь, то після 13 числа повинен бути 4к офіційний.

Додано через 47 секунд:

Panther2214
Як перекласти "КРОСАВЧЕГ"? =)

Panther2214 
Забанено
Забанено


З нами з: 29.09.17
Востаннє: 14.08.19
Повідомлень: 279

2019-08-05 20:28  
LastExile

Красень або красунчик, а що???

LastExile 
Новенький


З нами з: 25.09.10
Востаннє: 23.08.19
Повідомлень: 19

2019-08-05 20:33  
Panther2214
Та, що писати видавцям, якщо б не ломанули технологію то не бачили б ми ні 4к ні HDR.

Додано через 1 хвилину 26 секунд:

Я німцям свій Plex показав з 4к ТВ і Xbox One X - вони сказали що я точно не з України =)

KeryaS 
Поважний учасник


З нами з: 01.09.14
Востаннє: 23.08.19
Повідомлень: 180

2019-08-05 22:06  
igor911 написано:
для такого екшену та ефектів 23 Мб/с бітрейту

Поділіться секретом як ви його переглядаєте? Я на 1080р різниці від 10-12 Мб не бачу з лупою, а для більшості фільмів і 7-8 достатньо. Це на телевізорі 43" метрів з 2.

LastExile 
Новенький


З нами з: 25.09.10
Востаннє: 23.08.19
Повідомлень: 19

2019-08-05 22:37  
KeryaS
на 4к HDR TV видно різницю:
Кольори
Тіні
Насиченість
і в 4к чіткість в порівнянні з 1080р.
43'' Samsung 4k curved. Тільки після купівлі Xbox One X почав ТВ використовувати на 150%
Я зараз в основному 4к дивлюсь і 1080р якщо не має TRUE 4k.

Тут на трекері Шазам є на 75Гб -рекомендую.
Це як слухати музику на бюджетному смарт андроїді і в нормальному плеєрі із збалансованими вухами.
У мене Hidizs AP60 mark II та mee audio m6 pro.

Є бажання купити Atmos систему, але ціна б'є жабу.

KeryaS 
Поважний учасник


З нами з: 01.09.14
Востаннє: 23.08.19
Повідомлень: 180

2019-08-05 23:02  
LastExile написано:
4к HDR TV

Періодично виникає бажання купити, але бюджетні якось не вражають якістю, а віддати 1000+$ якось поки що жаба давить. Та і відсутність 3d в нинішніх тв відштовхує.

Але питання більше стосувалося саме 1080р, так як реліз цей не 4к, як на мене то фільм з бітрейтом 10 і 23, в такому випадку, відрізнить всліпу 1 з 100, а може й менше.

LastExile 
Новенький


З нами з: 25.09.10
Востаннє: 23.08.19
Повідомлень: 19

2019-08-06 11:42  
KeryaS
3d більше не буде. Погрались та хватить. У мене колись був у хаті 3d телик. 3 рази дивився і то не я.
Для купівлі можеш глянути в пріритеті Samsung nu8000 на 55'', ru8000 - трошки гірша, Q6.
TCL 6 Series/R617 2018 - як бюджетний варіант.

exitvray 
Свій


З нами з: 17.02.13
Востаннє: 24.08.19
Повідомлень: 53

2019-08-07 01:10  
Телевізори? )))
Для перегляду фільмів раджу проектор.Зараз ціна "хорошого/для кіно" Full HD/3D DLP проектора 500-750$.
За ці гроші ви отримуєте екран 3,6 метра ширини і 1,8 м висоти (дюйми рахуйте самі-їх тут вдосталь)))
ніякий телевізор навіть 65" 4К і поряд "не стоїть" -бо це всеодно моська перед якою треба сидіти 1,5 -2 метра щоб хоть якось відчувати великий екран.
Бережіть свій зір,бо телевізор-це пряме світло, а проектор відбите,що більш природньо.
Зазвичай люди і ходять в кінотеатри -бо великий екран,хороший звук...Всього цього,в наш час, можна досягти вдома за невеликі кошти.
Хто думає що над проектором трястись треба , здувати пилинки і рахувати час щоб лишню годину не напрацював- розраджу- це не правда.Мій за 3 роки напрацював 18 000 годин як монітор №2 ,за цей час замінив DLP колесо -90юанів і лампу -190юанів - це нормально,це копійчані розхідники.

Тож продавайте ті телики,поки мають ціну, беріть проектори і буде вам щастя-запевняю.
З роззявленим ротом будете переглядати свої терабайтні медіатеки заново)))

WRTRX 
Частий відвідувач


З нами з: 10.01.16
Востаннє: 17.08.19
Повідомлень: 41

2019-08-07 21:07  
Є шанси на реліз з 60fps?
orto76 
Новенький


З нами з: 05.08.16
Востаннє: 23.08.19
Повідомлень: 5

2019-08-09 13:57  
Також на проекторі дивлюсь. Прийшлось правда помучатись з затемненням кімнати, та зі звуком. Але в кінотеатри я не ходжу вже років вісім. Цей реліз качаю саме по цій причині.
Harumburu 
Новенький


З нами з: 02.07.15
Востаннє: 10.08.19
Повідомлень: 1

2019-08-10 21:47  
Дякую за реліз!
Був у кінотеатрі на цьому фільмі але отримав розчаруваня від перегляду =(.
- Загалом 5,5 годин м'ясники протистоять лише одному антигерою;
- Ляснули пальцями майже всі хто міг, наслідки всіх клацань так і не показали;
- Нових героїв так і не показали (Нова, Живий Трибунал або ще хто-небудь).
Як так, казахсТанос виніс половину живого у Всесвіті і ніхто, окрім Месників, не прийшов до нього "на каву"?!
Це поки що єдиний фільм, із усіх 3х фаз, який мені взагалі не зайшов.

А взагалі фільм вартий перегляду!

Ваш часовий пояс: GMT + 2 Години

Нова тема   Відповісти