Формула 1. Сезон 2019. Етап 12. Гран-Прі Угорщини. Гонка (04.08.2019) 1080p 2xUkr,Eng

Нові коментарі

Нова тема   Відповісти
Автор Повідомлення
sergiyko.5 
VIP


З нами з: 25.02.16
Востаннє: 26.10.20
Повідомлень: 3618

2019-08-04 17:50  
Формула 1. Сезон 2019. Етап 12. Гран-Прі Угорщини. Гонка (04.08.2019) 1080p 2xUkr,Eng

Формула 1. Сезон 2019. Етап 12. Гран-Прі Угорщини. Гонка (04.08.2019) 1080p 2xUkr,Eng

Жанр: Перегони Формули 1
Країна: Угорщина
Телеканал: Sky Sport F1 HD
Коментатор: Роман Гончаров, Максим Подзігун

Опис:
Гонка дванадцятого етапу Гран-Прі Угорщини 2019 року.


Якість:

Відео: кодек: розмір кадру: 1920 х 1080 бітрейт: 5000 кб/с
Аудіо: мова: українська кодек: 2.0 бітрейт: 192 кб/с
Аудіо: мова: українська кодек: 2.0 бітрейт: 192 кб/с
Аудіо: мова: англійська кодек: 2.0 бітрейт: 192 кб/с
Тривалість:
02:13:26
Про файл:
General
Unique ID : 156271039237242029448014591732779177617 (0x7590B5178F7015A7B1653DF46A15D691)
Complete name : E:\content\F1.2019.12.Hungarian.Race.1080p..Ukr.Eng.
Format :
Format version : Version 4
File size : 5.17 GiB
Duration : 2 h 13 min
Overall bit rate : 5 551 kb/s
Movie name : rip by sergiyko
Encoded date : UTC 2019-08-04 15:43:18
Writing application : v35.0.0 ('All The Love In The World') 64-bit
Writing library : libebml v1.3.9 + v1.5.2

Video
ID : 1
Format : AVC
Format/Info : Advanced Video Codec
Format profile : [email protected]
Format settings : CABAC / 4 Ref Frames
Format settings, CABAC : Yes
Format settings, Reference : 4 frames
Codec ID : V_MPEG4/ISO/AVC
Duration : 2 h 13 min
Bit rate : 4 972 kb/s
Width : 1 920 pixels
Height : 1 080 pixels
Display aspect ratio : 16:9
Frame rate mode : Constant
Frame rate : 25.000 FPS
Color space : YUV
Chroma subsampling : 4:2:0
Bit depth : 8 bits
Scan type : Progressive
Bits/(Pixel*Frame) : 0.096
Stream size : 4.63 GiB (90%)
Title : F1.2019.12.Hungarian.Race.1080p..Ukr.Eng
Language : English
Default : Yes
Forced : No

Audio #1
ID : 2
Format : LC
Format/Info : Advanced Audio Codec Low Complexity
Codec ID : A_AAC-2
Duration : 2 h 13 min
Bit rate : 192 kb/s
Channel(s) : 2 channels
Channel layout : L R
Sampling rate : 48.0 kHz
Frame rate : 46.875 FPS (1024 SPF)
Compression mode : Lossy
Delay relative to video : 16 ms
Stream size : 183 MiB (3%)
Title : Роман Гончаров
Language : Ukrainian
Default : Yes
Forced : Yes

Audio #2
ID : 3
Format : LC
Format/Info : Advanced Audio Codec Low Complexity
Codec ID : A_AAC-2
Duration : 2 h 13 min
Bit rate : 192 kb/s
Channel(s) : 2 channels
Channel layout : L R
Sampling rate : 48.0 kHz
Frame rate : 46.875 FPS (1024 SPF)
Compression mode : Lossy
Delay relative to video : 16 ms
Stream size : 183 MiB (3%)
Title : Максим Подзігун
Language : Ukrainian
Default : No
Forced : No

Audio #3
ID : 4
Format : LC
Format/Info : Advanced Audio Codec Low Complexity
Codec ID : A_AAC-2
Duration : 2 h 13 min
Bit rate : 192 kb/s
Channel(s) : 2 channels
Channel layout : L R
Sampling rate : 48.0 kHz
Frame rate : 46.875 FPS (1024 SPF)
Compression mode : Lossy
Delay relative to video : 7 ms
Stream size : 182 MiB (3%)
Title : Sky Sports F1
Language : English
Default : No
Forced : No
Скріншоти:


Запис/зведення: sergiyko


 Трекер:    Зареєстрований   

Завантажити / скачати торрент



відео для новачків



 Зареєстрований:   2019-08-04 17:50
 Розмір:   5.17 GB 
 Оцінка:   10/10 (Голосів: 21)
   
armogun 
Попереджень: 1
Попереджень: 1 


З нами з: 04.05.13
Востаннє: 26.10.20
Повідомлень: 700

2019-08-04 18:04  
оперативненько, [spoiler]просрали "бики" стратегічно Sad (1) [/spoiler]
Ваш часовий пояс: GMT + 2 Години

Нова тема   Відповісти