Земля до початку часів / Земля первісних часів / The Land Before Time (1988) 1080p 2xUkr/Eng | Sub Eng

Нові коментарі

Нова тема   Відповісти
Автор Повідомлення
sergiyko.5 
Забанено
Забанено


З нами з: 25.02.16
Востаннє: 29.10.20
Повідомлень: 3648

2019-08-04 08:34  
Всі одноіменні релізи на трекері

Земля до початку часів / Земля первісних часів / The Land Before Time (1988) 1080p 2xUkr/Eng | Sub Eng


Земля до початку часів / Земля первісних часів / The Land Before Time (1988) 1080p 2xUkr/Eng | Sub Eng

Жанр: мультфільм, пригодницький, сімейний
Країна: США
Кінокомпанія: Universal Cartoon Studios
Режисер: Дон Блат
Актори: Джудіт Барсі, Пет Гінгл, Гебріел Деймон, Гелен Шейвер, Білл Ервін, Берк Бірнс, Кендейс Гатсон, Вілл Райан, Дайана Росс, Френк Велкер

Сюжет:
Був час, коли нога людини ще не ступала на Землю. То був час вулканів, що вивергаються, величезних землетрусів і жахливих катаклізмів. Наша планета тоді була населена дивовижними і дивними істотами. Герой цього мультика, чарівний бронтозаврик Лапчик, відправився на пошуки легендарної Великої Долини, де з чуток можна непогано підкріпитися. Попутно він прихопив з собою в подорож ще чотирьох малюків-дінозавриків. В дорозі на цю строкату компанію очікують дивовижні і небезпечні пригоди.




Тривалість: 01:08:49
Якість:

Відео: кодек: розмір кадру: 1920 х 1032 бітрейт: 18500 кб/с
Аудіо # 1: мова: українська переклад: професійний дубльований кодек: 2.0 бітрейт: 192 кб/с
Озвучення:
Аудіо # 2: мова: українська переклад: багатоголосий закадровий кодек: 2.0 бітрейт: 192 кб/с
Озвучення:
Аудіо # 3: мова: англійська переклад: оригінал кодек: 5.1 бітрейт: 448 кб/с
Субтитри: мова: англійська тип: програмні (м'які) формат: *.srt
Про файл:
General
Unique ID : 163215226046559614043211897250143831739 (0x7ACA1BEF70660F1AD0329364F44086BB)
Complete name : C:\Users\Sergiy\Documents\The Land Before Time.1988.1080p..Ukr.Eng.
Format :
Format version : Version 4
File size : 9.27 GiB
Duration : 1 h 8 min
Overall bit rate : 19.3 Mb/s
Movie name : The Land Before Time 1988 1080p by sergiyko
Encoded date : UTC 2019-08-04 10:13:40
Writing application : v35.0.0 ('All The Love In The World') 64-bit
Writing library : libebml v1.3.9 + v1.5.2
Cover : Yes
Attachments : cover.jpeg

Video
ID : 1
Format : AVC
Format/Info : Advanced Video Codec
Format profile : [email protected]
Format settings : CABAC / 4 Ref Frames
Format settings, CABAC : Yes
Format settings, Reference : 4 frames
Codec ID : V_MPEG4/ISO/AVC
Duration : 1 h 8 min
Bit rate : 18.5 Mb/s
Width : 1 920 pixels
Height : 1 032 pixels
Display aspect ratio : 1.85:1
Frame rate mode : Constant
Frame rate : 23.976 (23976/1000) FPS
Color space : YUV
Chroma subsampling : 4:2:0
Bit depth : 8 bits
Scan type : Progressive
Bits/(Pixel*Frame) : 0.388
Stream size : 8.87 GiB (96%)
Title : The Land Before Time 1988
Writing library : core 157 r2970 5493be8
Encoding settings : cabac=1 / ref=4 / deblock=1:0:0 / analyse=0x3:0x133 / me=umh / subme=9 / psy=1 / psy_rd=1.00:0.00 / mixed_ref=1 / me_range=16 / chroma_me=1 / trellis=2 / 8x8dct=1 / cqm=0 / deadzone=21,11 / fast_pskip=1 / chroma_qp_offset=-2 / threads=24 / lookahead_threads=2 / sliced_threads=0 / nr=0 / decimate=1 / interlaced=0 / bluray_compat=0 / constrained_intra=0 / bframes=3 / b_pyramid=2 / b_adapt=2 / b_bias=0 / direct=3 / weightb=1 / open_gop=0 / weightp=2 / keyint=250 / keyint_min=23 / scenecut=40 / intra_refresh=0 / rc_lookahead=60 / rc=crf / mbtree=1 / crf=18.0 / qcomp=0.60 / qpmin=0 / qpmax=69 / qpstep=4 / vbv_maxrate=20000 / vbv_bufsize=30000 / crf_max=0.0 / nal_hrd=none / filler=0 / ip_ratio=1.40 / aq=1:1.00
Language : English
Default : Yes
Forced : No

Audio #1
ID : 2
Format : AC-3
Format/Info : Audio Coding 3
Commercial name : Dolby Digital
Codec ID : A_AC3
Duration : 1 h 8 min
Bit rate mode : Constant
Bit rate : 192 kb/s
Channel(s) : 2 channels
Channel layout : L R
Sampling rate : 48.0 kHz
Frame rate : 31.250 FPS (1536 SPF)
Bit depth : 16 bits
Compression mode : Lossy
Stream size : 94.5 MiB (1%)
Title : DUB 2ch | K1
Language : Ukrainian
Service kind : Complete Main
Default : Yes
Forced : Yes

Audio #2
ID : 3
Format : AC-3
Format/Info : Audio Coding 3
Commercial name : Dolby Digital
Codec ID : A_AC3
Duration : 1 h 8 min
Bit rate mode : Constant
Bit rate : 192 kb/s
Channel(s) : 2 channels
Channel layout : L R
Sampling rate : 48.0 kHz
Frame rate : 31.250 FPS (1536 SPF)
Bit depth : 16 bits
Compression mode : Lossy
Stream size : 94.4 MiB (1%)
Title : MOV 2ch | 1+1
Language : Ukrainian
Service kind : Complete Main
Default : No
Forced : No

Audio #3
ID : 4
Format : AC-3
Format/Info : Audio Coding 3
Commercial name : Dolby Digital
Codec ID : A_AC3
Duration : 1 h 8 min
Bit rate mode : Constant
Bit rate : 448 kb/s
Channel(s) : 6 channels
Channel layout : L R C LFE Ls Rs
Sampling rate : 48.0 kHz
Frame rate : 31.250 FPS (1536 SPF)
Bit depth : 16 bits
Compression mode : Lossy
Stream size : 221 MiB (2%)
Title : Original
Language : English
Service kind : Complete Main
Default : No
Forced : No

Text #1
ID : 5
Format : UTF-8
Codec ID : S_TEXT/UTF8
Codec ID/Info : UTF-8 Plain Text
Duration : 59 min 54 s
Bit rate : 33 b/s
Count of elements : 656
Stream size : 14.9 KiB (0%)
Language : English
Default : No
Forced : No

Text #2
ID : 6
Format : UTF-8
Codec ID : S_TEXT/UTF8
Codec ID/Info : UTF-8 Plain Text
Duration : 59 min 54 s
Bit rate : 63 b/s
Count of elements : 866
Stream size : 27.9 KiB (0%)
Title : SDH COLORED
Language : English
Default : No
Forced : No

Menu
00:00:00.000 : en:00:00:00.000
00:05:05.305 : en:00:05:05.305
00:10:16.866 : en:00:10:16.866
00:12:53.856 : en:00:12:53.856
00:16:11.470 : en:00:16:11.470
00:18:13.968 : en:00:18:13.968
00:27:12.965 : en:00:27:12.965
00:29:23.178 : en:00:29:23.178
00:30:47.304 : en:00:30:47.304
00:35:49.147 : en:00:35:49.147
00:37:23.032 : en:00:37:23.032
00:45:35.191 : en:00:45:35.191
00:46:54.520 : en:00:46:54.520
00:50:14.637 : en:00:50:14.637
00:54:30.893 : en:00:54:30.893
00:58:19.371 : en:00:58:19.371
Скріншоти:


Запис: Bohdan237
Зведення: sergiyko


Срібний реліз (на рейтинг впливає 50% завантаженого)
 Трекер:    Зареєстрований   

Завантажити / скачати мультфільм українською



відео для новачків



 Зареєстрований:   2019-08-04 12:30
 Розмір:   9.27 GB 
 Оцінка мультфільму:   9.8/10 (Голосів: 12)
   
Electroz 
Відео Гуртом - підтримка та поширення
Відео Гуртом - підтримка та поширення


З нами з: 18.09.14
Востаннє: 02.03.21
Повідомлень: 4332

2019-08-04 15:16  
sergiyko.5
Не плануєш зробити колекцію усіх наявних частин в avi/avc?

sergiyko.5 
Забанено
Забанено


З нами з: 25.02.16
Востаннє: 29.10.20
Повідомлень: 3648

2019-08-04 17:13  
Electroz
Ні. Другу частину вже зробили в avc.

BABELAN 
Свій


З нами з: 17.01.19
Востаннє: 25.02.21
Повідомлень: 50

2019-08-25 12:20  
Доріжкою від К1 не поділитесь - хотів оновити свій АВЦ та 720 Happy
sergiyko.5 
Забанено
Забанено


З нами з: 25.02.16
Востаннє: 29.10.20
Повідомлень: 3648

2019-08-25 12:37  
Сирої здається вже немає, а наявну з файла зможу вирізати, коли повернусь з роботи.
staf777 
Відео Гуртом - підтримка та поширення
Відео Гуртом - підтримка та поширення


З нами з: 16.11.16
Востаннє: 02.03.21
Повідомлень: 5068

2019-08-25 12:41  
sergiyko.5
Мені сира не треба - бо зводити не вмію - а ось з Вашого реліза те що треба Happy

sergiyko.5 
Забанено
Забанено


З нами з: 25.02.16
Востаннє: 29.10.20
Повідомлень: 3648

2019-08-25 20:18  
staf777 
Відео Гуртом - підтримка та поширення
Відео Гуртом - підтримка та поширення


З нами з: 16.11.16
Востаннє: 02.03.21
Повідомлень: 5068

2019-08-25 20:21  
sergiyko.5 -превелике дякую
Ваш часовий пояс: GMT + 2 Години

Нова тема   Відповісти