Формула 1. Сезон 2019. Етап 12. Гран-Прі Угорщини. Кваліфікація (03.08.2019) 720p 50fps

Нові коментарі

Нова тема   Відповісти
Останній раз роздавалося borelus (2019-12-01)
Автор Повідомлення
sergiyko.5 
Забанено
Забанено


З нами з: 25.02.16
Востаннє: 29.10.20
Повідомлень: 3651

2019-08-03 18:13  
[center]Формула 1. Сезон 2019. Етап 12. Гран-Прі Угорщини. Кваліфікація (03.08.2019) 720p 50fps

Формула 1. Сезон 2019. Етап 12. Гран-Прі Угорщини. Кваліфікація (03.08.2019) 720p 50fps

Жанр: Перегони Формули 1
Країна: Угорщина
Телеканал: Setanta Sports
Коментатор: Максим Подзігун

Опис:
Кваліфікація дванадцятого етапу Гран-Прі Угорщини 2019 року.


Якість:

Відео: кодек: розмір кадру: 1280 х 720 бітрейт: 4030 кб/с
Аудіо: мова: українська кодек: 2.0 бітрейт: 192 кб/с
Тривалість:
01:13:20
Про файл:
General
Complete name : E:\content\F1.2019.12.Hungarian.Qualifying.720p..Ukr.mp4
Format : MPEG-4
Format profile : Base Media
Codec ID : isom (isom/iso2/avc1/mp41)
File size : 2.17 GiB
Duration : 1 h 13 min
Overall bit rate mode : Variable
Overall bit rate : 4 230 kb/s
Movie name : rip by sergiyko
Writing application : Lavf58.28.102

Video
ID : 1
Format : AVC
Format/Info : Advanced Video Codec
Format profile : [email protected]
Format settings : CABAC / 1 Ref Frames
Format settings, CABAC : Yes
Format settings, Reference : 1 frame
Codec ID : avc1
Codec ID/Info : Advanced Video Coding
Duration : 1 h 13 min
Bit rate mode : Variable
Bit rate : 4 030 kb/s
Maximum bit rate : 12.0 Mb/s
Width : 1 280 pixels
Height : 720 pixels
Display aspect ratio : 16:9
Frame rate mode : Constant
Frame rate : 50.000 FPS
Color space : YUV
Chroma subsampling : 4:2:0
Bit depth : 8 bits
Scan type : Progressive
Bits/(Pixel*Frame) : 0.087
Stream size : 2.06 GiB (95%)
Language : English
Codec configuration box : avcC

Audio
ID : 2
Format : LC
Format/Info : Advanced Audio Codec Low Complexity
Codec ID : mp4a-40-2
Duration : 1 h 13 min
Bit rate mode : Constant
Bit rate : 192 kb/s
Channel(s) : 2 channels
Channel layout : L R
Sampling rate : 48.0 kHz
Frame rate : 46.875 FPS (1024 SPF)
Compression mode : Lossy
Stream size : 101 MiB (5%)
Title : Максим Подзігун
Language : Ukrainian
Default : Yes
Alternate group : 1
Скріншоти:


Запис/зведення: sergiyko


 Трекер:    Зареєстрований   

Завантажити / скачати торрент



відео для новачків



 Зареєстрований:   2019-08-03 18:13
 Розмір:   2.17 GB 
 Оцінка:   10/10 (Голосів: 3)
   
armogun 
Попереджень: 1
Попереджень: 1 


З нами з: 04.05.13
Востаннє: 31.10.20
Повідомлень: 701

2019-08-04 13:01  
Подзігун ска ! А Ферстапен казав що нічого ти йому не передавав і передає тобі привіт !
Ваш часовий пояс: GMT + 2 Години

Нова тема   Відповісти