Формула 1. Сезон 2019. Етап 12. Гран-Прі Угорщини. Кваліфікація (03.08.2019) 1080p

Нові коментарі

Нова тема   Відповісти
Автор Повідомлення
sergiyko.5 
Забанено
Забанено


З нами з: 25.02.16
Востаннє: 29.10.20
Повідомлень: 3651

2019-08-03 16:30  
Формула 1. Сезон 2019. Етап 12. Гран-Прі Угорщини. Кваліфікація (03.08.2019) 1080p

Формула 1. Сезон 2019. Етап 12. Гран-Прі Угорщини. Кваліфікація (03.08.2019) 1080p

Жанр: Перегони Формули 1
Країна: Угорщина
Телеканал: Setanta Sports
Коментатор: Максим Подзігун

Опис:
Кваліфікація дванадцятого етапу Гран-Прі Угорщини 2019 року.


Якість:

Відео: кодек: розмір кадру: 1920 х 1080 бітрейт: 6170 кб/с
Аудіо: мова: українська кодек: 2.0 бітрейт: 192 кб/с
Тривалість:
01:13:20
Про файл:
General
Unique ID : 231836880742812396472089007720120446960 (0xAE6A28B9B3C6C8A888673CF4DFEBEFF0)
Complete name : E:\content\F1.2019.12.Hungarian.Qualifying.1080p..Ukr.
Format :
Format version : Version 4
File size : 3.26 GiB
Duration : 1 h 13 min
Overall bit rate mode : Variable
Overall bit rate : 6 367 kb/s
Movie name : rip by sergiyko
Encoded date : UTC 2019-08-03 14:26:49
Writing application : v35.0.0 ('All The Love In The World') 64-bit
Writing library : libebml v1.3.9 + v1.5.2

Video
ID : 1
Format : AVC
Format/Info : Advanced Video Codec
Format profile : [email protected]
Format settings : CABAC / 3 Ref Frames
Format settings, CABAC : Yes
Format settings, Reference : 3 frames
Format settings, GOP : M=6, N=50
Codec ID : V_MPEG4/ISO/AVC
Duration : 1 h 13 min
Bit rate mode : Variable
Bit rate : 6 172 kb/s
Maximum bit rate : 7 500 kb/s
Width : 1 920 pixels
Height : 1 080 pixels
Display aspect ratio : 16:9
Frame rate mode : Constant
Frame rate : 25.000 FPS
Color space : YUV
Chroma subsampling : 4:2:0
Bit depth : 8 bits
Scan type : Progressive
Bits/(Pixel*Frame) : 0.119
Stream size : 3.16 GiB (97%)
Language : English
Default : Yes
Forced : No

Audio
ID : 2
Format : LC
Format/Info : Advanced Audio Codec Low Complexity
Codec ID : A_AAC-2
Duration : 1 h 13 min
Bit rate : 192 kb/s
Channel(s) : 2 channels
Channel layout : L R
Sampling rate : 48.0 kHz
Frame rate : 46.875 FPS (1024 SPF)
Compression mode : Lossy
Delay relative to video : 2 ms
Stream size : 101 MiB (3%)
Title : Максим Подзігун
Language : Ukrainian
Default : Yes
Forced : No
Скріншоти:


Запис/зведення: sergiyko


 Трекер:    Зареєстрований   

Завантажити / скачати торрент



відео для новачків



 Зареєстрований:   2019-08-03 16:30
 Розмір:   3.26 GB 
 Оцінка:   10/10 (Голосів: 11)
   
forsage29 
Новенький


З нами з: 24.07.12
Востаннє: 26.10.20
Повідомлень: 20

2019-08-04 10:03  
дуже радий, що ти не стримав обіцянки))) дякую!!!
Ваш часовий пояс: GMT + 2 Години

Нова тема   Відповісти