Отруйна троянда / The Poison Rose (2019) Ukr/Eng | Sub Eng

Нові коментарі

Нова тема   Відповісти
Автор Повідомлення
FaB0SS 
Відео Гуртом - фільмокрай
Відео Гуртом - фільмокрай


З нами з: 04.08.08
Востаннє: 18.10.19
Повідомлень: 543

2019-08-03 17:01  
Отруйна троянда / The Poison Rose (2019) Ukr/Eng | Sub Eng


«Приватний детектив. Резонансне вбивство. Ідеальний злочин.»



Жанр: драма, трилер
Країна: США, Італія



Кінокомпанія: JTP Films, March On Productions, Millennium Media
Режисер: Франческо Сінкуемані, Джордж Галло
Актори: Джон Траволта, Морган Фрімен, Брендан Фрейзер, Фамке Янссен, Петер Стормаре, Роберт Патрік, Кет Грехем, Клаудія Джеріні, Джулі Лотт

Сюжет:
Раніше Карсон Філіпс був футбольною зіркою, але тепер працює приватним детективом та шукає порятунок від своїх невдач в алкоголі та азартних іграх. Та одного разу він береться за стандартну справу про зниклих безвісти людей і виходить на дюжину кривавих злочинів. У числі підозрюваних – його давно втрачена дочка-підліток...


Тривалість: 01:37:51
Якість:

Відео:
кодек:
розмір кадру: 720 х 304
бітрейт: 1738 кб/с

Аудіо # 1:
мова: українська
переклад: професійний дубльований
кодек: 2.0 (стерео)
бітрейт: 192 кб/с

Аудіо # 2:
мова: англійська
переклад: оригінал
кодек: 5.1
бітрейт: 448 кб/с

Субтитри # 1:
мова: англійська повні
тип: програмні (м'які)
формат: *.srt

Субтитри # 2:
мова: англійська SDH
тип: програмні (м'які)
формат: *.srt
Info
Код:
General
Complete name               : The Poison Rose (2019) [UKR_ENG] [Hurtom].avi
Format                      : AVI
Format/Info                 : Audio Video Interleave
Format profile              : OpenDML
Format settings             : rec
File size                   : 1.63 GiB
Duration                    : 1 h 37 min
Overall bit rate            : 2 385 kb/s
Movie name                  : Отруйна троянда / The Poison Rose (2019)
Writing application         : AVI-Mux GUI 1.17.8, Aug 30 2008  12:36:58

Video
ID                          : 0
Format                      : MPEG-4 Visual
Format profile              : Advanced [email protected]
Format settings             : BVOP1 / Custom Matrix
Format settings, BVOP       : 1
Format settings, QPel       : No
Format settings, GMC        : No warppoints
Format settings, Matrix     : Custom
Codec ID                    :
Codec ID/Hint               :
Duration                    : 1 h 37 min
Bit rate                    : 1 738 kb/s
Width                       : 720 pixels
Height                      : 304 pixels
Display aspect ratio        : 2.35:1
Frame rate                  : 23.976 (24000/1001) FPS
Color space                 : YUV
Chroma subsampling          : 4:2:0
Bit depth                   : 8 bits
Scan type                   : Progressive
Compression mode            : Lossy
Bits/(Pixel*Frame)          : 0.331
Stream size                 : 1.19 GiB (73%)
Writing library             : 67

Audio #1
ID                          : 1
Format                      : AC-3
Format/Info                 : Audio Coding 3
Commercial name             : Dolby Digital
Codec ID                    : 2000
Duration                    : 1 h 37 min
Bit rate mode               : Constant
Bit rate                    : 192 kb/s
Channel(s)                  : 2 channels
Channel layout              : L R
Sampling rate               : 48.0 kHz
Frame rate                  : 31.250 FPS (1536 SPF)
Bit depth                   : 16 bits
Compression mode            : Lossy
Stream size                 : 134 MiB (8%)
Alignment                   : Aligned on interleaves
Interleave, duration        : 64  ms (1.53 video frames)
Interleave, preload duratio : 192  ms
Title                       : Dub AAA Sound [UKR]
Service kind                : Complete Main

Audio #2
ID                          : 2
Format                      : AC-3
Format/Info                 : Audio Coding 3
Commercial name             : Dolby Digital
Codec ID                    : 2000
Duration                    : 1 h 37 min
Bit rate mode               : Constant
Bit rate                    : 448 kb/s
Channel(s)                  : 6 channels
Channel layout              : L R C LFE Ls Rs
Sampling rate               : 48.0 kHz
Frame rate                  : 31.250 FPS (1536 SPF)
Bit depth                   : 16 bits
Compression mode            : Lossy
Stream size                 : 314 MiB (19%)
Alignment                   : Aligned on interleaves
Interleave, duration        : 64  ms (1.53 video frames)
Interleave, preload duratio : 192  ms
Title                       : Original [ENG]
Service kind                : Complete Main

Text #1
ID                          : 3
Stream size                 : 88.1 KiB (0%)
Title                       : Full [eng]

Text #2
ID                          : 4
Format                      : SubRip
Compression mode            : Lossless
Stream size                 : 93.5 KiB (0%)
Title                       : SDH [eng]
Скріншоти







Джерело:
Особиста оцінка: 0 - не дивився


 Трекер:    Зареєстрований   

Завантажити / скачати фільм українською



відео для новачків



 Зареєстрований:   2019-08-03 17:01
 Розмір:   1.63 GB 
 Оцінка фільму:   9.5/10 (Голосів: 43)
   
Інші релізи
бронн 
Частий відвідувач


З нами з: 21.10.16
Востаннє: 16.10.19
Повідомлень: 33

2019-08-04 18:11  
Фільм дуже сподобався. Зроблений в стилі старих детективних фільмів, коли головний герой - приватний детектив веде розповідь від першої особи. Цікавий фільм.
arhimed10 
Новенький


З нами з: 21.11.16
Востаннє: 17.10.19
Повідомлень: 6

2019-08-04 20:50  
Дурнуватий фільм
tech-man 
Новенький


З нами з: 21.10.16
Востаннє: 17.10.19
Повідомлень: 1

2019-08-05 18:22  
Гей, хлопці! То фільм норм чи ні? (бо я не второпав...)
oleshka_ua 
Частий відвідувач


З нами з: 02.06.13
Востаннє: 17.10.19
Повідомлень: 46

2019-08-05 20:07  
Значить треба подивитись і тоді зробити свої висновки бо в кожної людини інші смаки і поняття про фільми...
miramaxx 
Свій


З нами з: 18.05.11
Востаннє: 18.10.19
Повідомлень: 54

2019-08-05 20:15  
разок можна подивитись. не всі ролі розкриті
bobofam 
Новенький


З нами з: 21.12.09
Востаннє: 15.10.19
Повідомлень: 6

2019-08-05 22:10  
ну такоє.... Ніби і файне, але не вставило
westhirurg 
Новенький


З нами з: 06.08.13
Востаннє: 18.10.19
Повідомлень: 7

2019-09-29 12:51  
Кілька пристарілих зірок і банальний ( та й не розкритий до кінця ) сюжет. Не варто часу.
Ваш часовий пояс: GMT + 2 Години

Нова тема   Відповісти