Хейвен (Сезони 1-5) / Haven (Seasons 1-5) (2010-2015) 1080p Ukr/Eng | sub Eng

Нові коментарі

Нова тема   Відповісти
Автор Повідомлення
Anonymous 







2019-08-03 13:16  

Сезони 1-5: AVC | 1080p


Хейвен (Сезони 1-5) / Haven (Seasons 1-5) (2010-2015) 1080p Ukr/Eng | sub Eng

Хейвен (Сезони 1-5) / Haven (Seasons 1-5) (2010-2015) 1080p Ukr/Eng | sub Eng


Жанр: драма, фентезі
Країна: США, Канада



Кінокомпанія: Entertainment One, Big Motion Pictures, Piller Squared/The Segan Company
Режисер: Джим Данн (Jim Dunn), Сем Ернст (Sam Ernst)
Актори: Емілі Роуз (Emily Rose), Лукас Браянт (Lucas Bryant), Ерік Балфор (Eric Balfour) та інші

Сюжет:
Агент ФБР Одрі Паркер прибуває в містечко під назвою Хейвен, щоб знайти злочинця-втікача. Але виявляється, що місто здавна служить притулком для людей, що володіють надздібностями, і багато жителів містечка використовують їх далеко не в мирних цілях. Жителі називають ці здібності "бідами" або "проблемами", так як не завжди можуть їх контролювати. Одрі виявляє, що може допомагати людям справлятися з такими бідами. Напарником Одрі в розслідуванні таємничих подій стає місцевий детектив Нейтан Уорнос, а також чарівний контрабандист Дюк Крокер.


Тривалість: 1 серія: ~43 хв. (цілком серій: 78)
Перелік серій
Сезон 1
01) Welcome to Haven
02) Butterfly
03) Harmony
04) Consumed
05) Ball and Chain
06) Fur
07) Sketchy
08) Ain't No Sunshine
09) As You Were
10) The Hand You're Dealt
11) The Trial of Audrey Parker
12) Resurfacing
13) Spiral
Сезон 2
01) A Tale of Two Audreys
02) Fear & Loathing
03) Love Machine
04) Sparks and Recreation
05) Roots
06) Audrey Parker's Day Off
07) The Tides That Bind
08) Friend or Faux
09) Lockdown
10) Who, What, Where, Wendigo?
11) Business as Usual
12) Sins of the Fathers
13) Silent Night
Сезон 3
01) 301
02) Stay
03) The Farmer
04) Over My Head
05) Double Jeopardy
06) Real Estate
07) Magic Hour
08) Magic Hour (Part 2)
09) Sarah
10) Burned
11) Last Goodbyes
12) Reunion
13) Thanks for the Memories
Сезон 4
01) Fallout
02) Survivors
03) Bad Blood
04) Lost and Found
05) The New Girl
06) Countdown
07) Lay Me Down
08) Crush
09) William
10) The Trouble with Troubles
11) Shot in the Dark
12) When the Bough Breaks
13) The Lighthouse
Сезон 5
01) See No Evil
02) Speak No Evil
03) Spotlight
04) Much Ado About Mara
05) The Old Switcheroo: Part 1
06) The Old Switcheroo: Part 2
07) Nowhere Man
08) Exposure
09) Morbidity
10) Mortality
11) Reflections
12) Chemistry
13) Chosen
14) New World Order
15) Power
16) The Trial of Nathan Wuornos
17) Enter Sandman
18) Wild Card
19) Perditus
20) Just Passing Through
21) Close to Home
22) A Matter of Time
23) Blind Spot
24) The Widening Gyre
25) Now
26) Forever
Якість:
Відео:
кодек:
розмір кадру: 1920 х 1080
бітрейт: ~9 мб/с

Аудіо # 1:
мова: українська
переклад: багатоголосий закадровий
кодек: 2.0
бітрейт: 192 кб/с

Аудіо # 2:
мова: англійська
переклад: оригінал
кодек: 5.1
бітрейт: 448 кб/с

Джерело озвучення:


Субтитри:
мова: англійська
тип: програмні (м'які)
формат: *.srt
Info
General
Unique ID : 263051659917131728513089142258608634211 (0xC5E5E828FE6FBD8656F53152243BF963)
Complete name : F:\Support\series\Haven [, 1080p, Ukr, Eng]\Season 1\Haven. s01e01. Welcome to Haven.
Format :
Format version : Version 4
File size : 3.02 GiB
Duration : 43 min 33 s
Overall bit rate : 9 912 kb/s
Encoded date : UTC 2019-07-04 15:18:51
Writing application : v35.0.0 ('All The Love In The World') 64-bit
Writing library : libebml v1.3.9 + v1.5.2

Video
ID : 1
Format : AVC
Format/Info : Advanced Video Codec
Format profile : [email protected]
Format settings : CABAC / 4 Ref Frames
Format settings, CABAC : Yes
Format settings, ReFrames : 4 frames
Codec ID : V_MPEG4/ISO/AVC
Duration : 43 min 33 s
Bit rate : 9 270 kb/s
Width : 1 920 pixels
Height : 1 080 pixels
Display aspect ratio : 16:9
Frame rate mode : Constant
Frame rate : 23.976 (24000/1001) FPS
Original frame rate : 23.976 (23976/1000) FPS
Color space : YUV
Chroma subsampling : 4:2:0
Bit depth : 8 bits
Scan type : Progressive
Bits/(Pixel*Frame) : 0.186
Stream size : 2.82 GiB (94%)
Writing library : core 115 r1995 c1e60b9
Encoding settings : cabac=1 / ref=4 / deblock=1:0:0 / analyse=0x3:0x133 / me=umh / subme=7 / psy=1 / psy_rd=1.00:0.00 / mixed_ref=1 / me_range=16 / chroma_me=1 / trellis=1 / 8x8dct=1 / cqm=0 / deadzone=21,11 / fast_pskip=0 / chroma_qp_offset=-2 / threads=12 / sliced_threads=0 / nr=0 / decimate=1 / interlaced=0 / bluray_compat=0 / constrained_intra=0 / bframes=3 / b_pyramid=2 / b_adapt=1 / b_bias=0 / direct=1 / weightb=1 / open_gop=0 / weightp=2 / keyint=250 / keyint_min=23 / scenecut=40 / intra_refresh=0 / rc_lookahead=40 / rc=2pass / mbtree=1 / bitrate=9270 / ratetol=1.0 / qcomp=0.60 / qpmin=0 / qpmax=69 / qpstep=4 / cplxblur=20.0 / qblur=0.5 / ip_ratio=1.40 / aq=1:1.00
Language : English
Default : Yes
Forced : No

Audio #1
ID : 2
Format : AC-3
Format/Info : Audio Coding 3
Commercial name : Dolby Digital
Codec ID : A_AC3
Duration : 43 min 33 s
Bit rate mode : Constant
Bit rate : 192 kb/s
Channel(s) : 2 channels
Channel layout : L R
Sampling rate : 48.0 kHz
Frame rate : 31.250 FPS (1536 SPF)
Bit depth : 16 bits
Compression mode : Lossy
Stream size : 59.8 MiB (2%)
Title : НТН
Language : Ukrainian
Service kind : Complete Main
Default : Yes
Forced : No

Audio #2
ID : 3
Format : AC-3
Format/Info : Audio Coding 3
Commercial name : Dolby Digital
Codec ID : A_AC3
Duration : 43 min 33 s
Bit rate mode : Constant
Bit rate : 448 kb/s
Channel(s) : 6 channels
Channel layout : L R C LFE Ls Rs
Sampling rate : 48.0 kHz
Frame rate : 31.250 FPS (1536 SPF)
Bit depth : 16 bits
Compression mode : Lossy
Stream size : 140 MiB (5%)
Language : English
Service kind : Complete Main
Default : No
Forced : No

Text
ID : 4
Format : UTF-8
Codec ID : S_TEXT/UTF8
Codec ID/Info : UTF-8 Plain Text
Duration : 42 min 47 s
Bit rate : 72 b/s
Count of elements : 770
Stream size : 22.8 KiB (0%)
Language : English
Default : No
Forced : No

Menu
00:00:00.000 : 00:00:00.000
00:02:47.417 : 00:02:47.417
00:12:58.236 : 00:12:58.236
00:19:07.104 : 00:19:07.104
00:24:42.731 : 00:24:42.731
00:32:57.976 : 00:32:57.976
00:43:07.835 : 00:43:07.835
Скріншоти

Дякую krigg070 за запис та синхронізацію української доріжки

Джерело: &
Особиста оцінка: 0 - не дивився


Золотий реліз (завантажене не впливає на рейтинг)
 Трекер:    Зареєстрований   

Завантажити / скачати серіал українською



відео для новачків



 Зареєстрований:   2019-08-03 13:16
 Розмір:   244.3 GB 
 Оцінка серіалу:   9.8/10 (Голосів: 12)
   
якого 
Новенький


З нами з: 16.01.16
Востаннє: 29.11.20
Повідомлень: 20

2019-08-03 19:09  
Дякую,шановний
Dr.S 
Поважний учасник


З нами з: 30.05.17
Востаннє: 30.11.20
Повідомлень: 151

2019-08-03 19:56  
720p зробите?
Anonymous 







2019-08-03 19:58  
Dr.S написано:
720p зробите?

Ні, до половини сезонів його знайти не вдалось, а так би певно його і робив замість 1080p.

якого 
Новенький


З нами з: 16.01.16
Востаннє: 29.11.20
Повідомлень: 20

2019-08-04 17:18  
у 5-й серїi звук випереджає картинку
Anonymous 







2019-08-04 17:38  
якого написано:
у 5-й серїi звук випереджає картинку

Це ж у першому сезоні? Перевірив, у мене наче норм.

Спробуйте в іншому плеєрі і переконайтеся, що файл повністю завантажений. Якщо те саме буде - скажіть коли саме той розсинхрон можна ясно помітити. І ще хтось перевірте, будь ласка.

якого 
Новенький


З нами з: 16.01.16
Востаннє: 29.11.20
Повідомлень: 20

2019-08-04 19:30  
Anonymous,прошу мене вибачити,проблема саме в мене i це стосується кожної серiї.Чим довше дивлюсь серiю тим бiльший розсинхрон.Дювлюсь на вбудованому програвачи windows,сподiваюсь проблема в цьому.Пiдкажiть якийсь хороший плеєр,будь ласка
Electroz 
Відео Гуртом - підтримка та поширення
Відео Гуртом - підтримка та поширення


З нами з: 18.09.14
Востаннє: 02.12.20
Повідомлень: 4217

2019-08-04 19:31  
якого написано:
Пiдкажiть якийсь хороший плеєр,будь ласка

https://www.videohelp.com/software/MPC-BE

Dr.S 
Поважний учасник


З нами з: 30.05.17
Востаннє: 30.11.20
Повідомлень: 151

2019-08-06 20:02  
Anonymous написано:
Ні, до половини сезонів його знайти не вдалось, а так би певно його і робив замість 1080p.

у мене наче всі в 720p, не було лише української доріжки...
дістану диск - гляну

Danylo0007 
Новенький


З нами з: 27.07.17
Востаннє: 16.11.20
Повідомлень: 1

2019-10-24 12:25  
Anonymous
Допоможіть роздати Хейвен. Дякую.

Dr.S 
Поважний учасник


З нами з: 30.05.17
Востаннє: 30.11.20
Повідомлень: 151

2020-06-27 16:33  
Допоможіть завантажити
Ваш часовий пояс: GMT + 2 Години

Нова тема   Відповісти