Вбиваючи Єву (Сезон 2) / Killing Eve (Season 2) (2019) 720р Ukr/Eng | Sub Eng

Нові коментарі

Нова тема   Відповісти
Автор Повідомлення
Anonymous 







2019-08-02 12:24  
Вбиваючи Єву (Сезон 2) / Killing Eve (Season 2) (2019) 720р Ukr/Eng | Sub Eng

Вбиваючи Єву (Сезон 2) / Killing Eve (Season 2) (2019) 720р Ukr/Eng | Sub Eng


Жанр: трилер, драма
Країна: Велика Британія



Кінокомпанія: Panorama Films, Sid Gentle Films
Режисер: Джон Іст, Деймон Томас, Гаррі Бредбір
Актори: Сандра О, Джоді Комер, Фіона Шоу, Кім Бодніа, Шон Делані, Кірбі Гауелл-Баптісте

Сюжет:
Захопливий драматичний трилер від телеканалу ВВС America знятий за серією новел Люка Дженнінгса «Кодове ім'я Вілланель».
В центрі сюжету – історія протистояння холоднокровної жінки-кілера на прізвисько Вілланель та спокійної й талановитої співробітниці Mi-5 на ім’я Єва Поластрі.


Тривалість: 1 серія: 43:00 (цілком серій: 8 з 8)
Перелік серій
1 Apr 07, 2019 Do You Know How to Dispose of a Body?
2 Apr 14, 2019 Nice and Neat
3 Apr 21, 2019 The Hungry Caterpillar
4 Apr 28, 2019 Desperate Times
5 May 05, 2019 Smell Ya Later
6 May 12, 2019 I Hope You Like Missionary!
7 May 19, 2019 Wide Awake
8 May 26, 2019 You're Mine
Якість:
Відео:
кодек: H.263
розмір кадру: 1280 х 720
бітрейт: 5642 кб/с

Аудіо # 1:
мова: українська
переклад: багатоголосий закадровий | DubLiCat
кодек: 5.1
бітрейт: 640 кб/с

Аудіо # 2:
мова: англійська
переклад: оригінал
кодек: 5.1
бітрейт: 640 кб/с

Субтитри:
мова: англійська
тип: програмні (м'які)
формат: *.srt
Info
Video
ID : 1
Format : AVC
Format/Info : Advanced Video Codec
Format profile : [email protected]
Format settings, CABAC : Yes
Format settings, RefFrames : 5 frames
Codec ID : V_MPEG4/ISO/AVC
Duration : 43 min 41 s
Bit rate : 5 642 kb/s
Width : 1 280 pixels
Height : 720 pixels
Display aspect ratio : 16:9
Frame rate mode : Constant
Frame rate : 23.976 (24000/1001) FPS
Color space : YUV
Chroma subsampling : 4:2:0
Bit depth : 8 bits
Scan type : Progressive
Bits/(Pixel*Frame) : 0.255
Stream size : 1.72 GiB (81%)
Writing library : core 157 r2969 d4099dd
Encoding settings : cabac=1 / ref=5 / deblock=1:-3:-3 / analyse=0x3:0x113 / me=umh / subme=8 / psy=1 / psy_rd=1.00:0.00 / mixed_ref=1 / me_range=16 / chroma_me=1 / trellis=1 / 8x8dct=1 / cqm=0 / deadzone=21,11 / fast_pskip=1 / chroma_qp_offset=-2 / threads=22 / lookahead_threads=3 / sliced_threads=0 / nr=0 / decimate=1 / interlaced=0 / bluray_compat=0 / constrained_intra=0 / bframes=3 / b_pyramid=2 / b_adapt=1 / b_bias=0 / direct=3 / weightb=1 / open_gop=0 / weightp=2 / keyint=250 / keyint_min=23 / scenecut=40 / intra_refresh=0 / rc_lookahead=50 / rc=2pass / mbtree=1 / bitrate=5642 / ratetol=1.0 / qcomp=0.60 / qpmin=0 / qpmax=69 / qpstep=4 / cplxblur=20.0 / qblur=0.5 / ip_ratio=1.40 / aq=1:1.00
Language : English
Default : Yes
Forced : No

Audio #1
ID : 2
Format : AC-3
Format/Info : Audio Coding 3
Format settings, Endianness : Big
Codec ID : A_AC3
Duration : 43 min 41 s
Bit rate mode : Constant
Bit rate : 640 kb/s
Channel(s) : 6 channels
Channel positions : Front: L C R, Side: L R, LFE
Sampling rate : 48.0 kHz
Frame rate : 31.250 FPS (1536 SPF)
Bit depth : 16 bits
Compression mode : Lossy
Stream size : 200 MiB (9%)
Title : MVO - DubLiCat
Language : Ukrainian
Service kind : Complete Main
Default : Yes
Forced : No

Audio #2
ID : 3
Format : AC-3
Format/Info : Audio Coding 3
Format settings, Endianness : Big
Codec ID : A_AC3
Duration : 43 min 41 s
Bit rate mode : Constant
Bit rate : 640 kb/s
Channel(s) : 6 channels
Channel positions : Front: L C R, Side: L R, LFE
Sampling rate : 48.0 kHz
Frame rate : 31.250 FPS (1536 SPF)
Bit depth : 16 bits
Compression mode : Lossy
Stream size : 200 MiB (9%)
Language : English
Service kind : Complete Main
Default : No
Forced : No

Text
ID : 4
Format : UTF-8
Codec ID : S_TEXT/UTF8
Codec ID/Info : UTF-8 Plain Text
Duration : 43 min 8 s
Bit rate : 52 b/s
Count of elements : 586
Stream size : 16.7 KiB (0%)
Language : English
Default : No
Forced : No

Menu
00:00:00.000 : en:00:00:00.000
00:05:58.358 : en:00:05:58.358
00:11:48.666 : en:00:11:48.666
00:17:53.614 : en:00:17:53.614
00:22:54.832 : en:00:22:54.832
00:29:59.840 : en:00:29:59.840
00:36:00.241 : en:00:36:00.241
00:43:08.711 : en:00:43:08.711
Скріншоти






Подяка: пану Gingеrbread за допомогу і зведення першої серії та студії DubLiCat за чисті голоси для доріжки.
Джерело: &
Особиста оцінка: 10 - без зайвих вагань рекомендую всім!


Авторський реліз (завантажувати можна без реєстрації)
 Трекер:    Зареєстрований   

Завантажити / скачати серіал українською



відео для новачків



 Зареєстрований:   2019-08-09 20:26
 Розмір:   16.93 GB 
 Оцінка серіалу:   10/10 (Голосів: 1)
   
don pedro 
Попереджень: 1
Попереджень: 1 


З нами з: 29.06.11
Востаннє: 24.08.19
Повідомлень: 14240

2019-08-02 12:37  
Мабуть, найбожевільніший серіал останнього часу. Занадто вразливим його дивитись не варто (особливо першу серію цього сезону). "Вілламель" геть пустилась берега.
laszlozp 
Свій


З нами з: 28.07.19
Востаннє: 23.08.19
Повідомлень: 90

2019-08-05 17:40  
Подивився 2 сезони (англійською). Мені не зайшло, абсолютно.
bot 
робот


З нами з: 30.09.07
Востаннє: 26.05.05
Повідомлень: 21799

2019-08-09 20:26  
Тему перенесено з Анонси релізів до форуму Серіали в HD


leicheman

Anonymous 







2019-08-09 20:34  
Хто буде дивитися на залізних програвачах (телевізор з флешки/жд чи ресиверах) відпишіться чи відтворюється у вас серіал.
В мене телевізор намертво зависає хоча ріп здається звичайним.

Ваш часовий пояс: GMT + 2 Години

Нова тема   Відповісти