Шазам! / Shazam! (2019)

Нові коментарі

Нова тема   Відповісти
Автор Повідомлення
surikmas 
Новенький


З нами з: 26.03.19
Востаннє: 15.09.19
Повідомлень: 14

2019-08-02 10:18  
Шазам! / Shazam! (2019)

Шазам! / Shazam! (2019)


Жанр: бойовик, комедія, пригодницький, фентезі
Країна: США



Кінокомпанія: Warner Bros., DC Entertainment, DC Comics
Режисер: Девід Ф. Сандберг
Актори: Закарі Лівай, Ешер Енджел, Джек Грейзер, Марк Стронг, Грейс Фултон, Адам Броді, Джимон Гонсу, Фейті Херман, Міган Гуд, Мішелль Борт

Сюжет:
Тінейджер Біллі Бетсон отримує здатність у разі потреби перетворюватися на дорослого супергероя за допомогою одного чарівного слова.


Тривалість: 02:11:43
Якість: (ріп з ріпа)
Відео:
кодек:
розмір кадру: 688 x 288
бітрейт: 702 кб/с

Аудіо:
мова: українська
переклад: професійний дубльований
кодек: MP3
бітрейт: 128 кб/с
Info


General
Complete name : D:\Shazam! (Dub UKR) (2019) by ExKinoRay & Shkiper.avi
Format : AVI
Format/Info : Audio Video Interleave
File size : 790 MiB
Duration : 2 h 11 min
Overall bit rate : 839 kb/s
Writing application : VirtualDubMod 1.5.10.3 | www.virtualdub-fr.org || (build 2550/release)
Writing library : VirtualDubMod build 2550/release

Video
ID : 0
Format : MPEG-4 Visual
Format profile : Advanced [email protected]
Format settings : BVOP1 / Custom Matrix
Format settings, BVOP : 1
Format settings, QPel : No
Format settings, GMC : No warppoints
Format settings, Matrix : Custom
Codec ID :
Codec ID/Hint :
Duration : 2 h 11 min
Bit rate : 702 kb/s
Width : 688 pixels
Height : 288 pixels
Display aspect ratio : 2.40:1
Frame rate : 23.976 (24000/1001) FPS
Color space : YUV
Chroma subsampling : 4:2:0
Bit depth : 8 bits
Scan type : Progressive
Compression mode : Lossy
Bits/(Pixel*Frame) : 0.148
Stream size : 661 MiB (84%)
Writing library : 73

Audio
ID : 1
Format : MPEG Audio
Format version : Version 1
Format profile : Layer 3
Codec ID : 55
Codec ID/Hint : MP3
Duration : 2 h 11 min
Bit rate mode : Constant
Bit rate : 128 kb/s
Channel(s) : 2 channels
Sampling rate : 48.0 kHz
Frame rate : 41.667 FPS (1152 SPF)
Compression mode : Lossy
Stream size : 121 MiB (15%)
Alignment : Aligned on interleaves
Interleave, duration : 42 ms (1.00 video frame)
Interleave, preload duratio : 504 ms
Writing library : LAME3.99r
Encoding settings : -m s -V 4 -q 2 -lowpass 17 -b 128
Скріншоти
Джерело: & Shkiper
Особиста оцінка: 10 - без зайвих вагань рекомендую всім!


 Трекер:    Зареєстрований   

Завантажити / скачати фільм українською



відео для новачків



 Зареєстрований:   2019-08-02 10:18
 Розмір:   790 MB 
 Оцінка фільму:   9.6/10 (Голосів: 10)
   
Інші релізи
   Шазам! / Shazam! (2019) 1080p Ukr/Eng | Sub Eng staf777  23 / 0   10.14 GB   2019-07-31 19:39 
   Шазам! / Shazam! (2019) Ukr/Eng | Sub Eng igor911  15 / 1   2.18 GB   2019-07-28 20:26 
   Шазам! / Shazam! (2019) Remux 1080p Ukr/Eng | Sub Eng kryk-v.ya.  8 / 0   27.25 GB   2019-07-28 19:27 
   Шазам! / Shazam! (2019) UHD Remux 4K 2160p HDR H.265 Ukr/Eng | Sub Eng antik_2008  5 / 0   74.79 GB   2019-07-28 14:13 
   Шазам! / Shazam! (2019) AVC Ukr/Eng | Sub Eng 11FrYkT  19 / 0   2.44 GB   2019-07-28 10:17 
   Шазам! / Shazam! (2019) 720p Ukr/Eng | Sub Eng 11FrYkT  18 / 4   5.7 GB   2019-07-28 10:01 
   Шазам! / Shazam! (2019) igor911  54 / 0   1.46 GB   2019-07-10 14:38 
Ваш часовий пояс: GMT + 2 Години

Нова тема   Відповісти