Бетмен / Batman (1989) UHD Remux 4K 2160p HDR H.265 Ukr/Eng | Sub Ukr/Eng

Нові коментарі

Нова тема   Відповісти
Автор Повідомлення
Anonymous 







2019-08-02 08:32  
Бетмен / Batman (1989) UHD Remux 4K 2160p HDR H.265 Ukr/Eng | Sub Ukr/Eng

Український постер від mishka1998:

Жанр: фантастика, бойовик, трилер, кримінальний
Країна: США, Велика Британія



Кіностудія / кінокомпанія: Warner Bros. Pictures, Guber-Peters Company, The, PolyGram Filmed Entertainment
Режисер: Тім Бартон
Актори: Майкл Кітон, Джек Ніколсон, Кім Бейсінгер, Роберт Вул, Пет Хінгл, Біллі Ді Вільямс, Майкл Гоф, Джек Паланс, Джері Холл, Трейсі Волтер

Сюжет:
Споконвічне протистояння добра і зла: божевільний, але чарівний лиходій Джокер - смертельна загроза для міста Готема. Безкомпромісний і загадковий Бетмен - його остання надія на порятунок. Тільки герой-рятівник не бажає розкривати своє справжнє ім'я, і не тільки зі скромності ... Але наполеглива журналістка, сповнена рішучості довідатися, кому із жителів Готема зобов'язані всім ...


Тривалість: 02:06:18
Якість: 4K UltraHD Remux 2160p

Відео:
кодек: H.265 (HEVC)
розмір кадру: 3840x2160
бітрейт: 70 Мб/с
бітова глибина: 10 біт
кольоровий простір: BT.2020 (HDR)

Аудіо # 1:
мова: українська
переклад: багатоголосий закадровий
кодек: 5.1
бітрейт: 384 кб/с

Аудіо # 2:
мова: англійська
переклад: оригінал
кодек: 5.1
бітрейт: 640 кб/с

Аудіо # 3:
мова: англійська
переклад: оригінал
кодек: TrueHD + Atmos 7.1
бітрейт: 3772 кб/с

Звук записано з телеканалу:


Субтитри # 1:
мова: українська
тип: програмні (м'які) | (full)
формат: *.srt

Субтитри # 2-3:
мова: англійська
тип: програмні (м'які) | (full, SDH)
формат: *.srt
Info
Код:
General
Complete name                            : Batman (1989) UHD Remux 4K 2160p HDR H.265 (HEVC) [UKR_ENG] [ViDeO_Hurtom].
Format                                   :
Format version                           : Version 4
File size                                : 66.0 GiB
Duration                                 : 2 h 6 min
Overall bit rate mode                    : Variable
Overall bit rate                         : 74.8 Mb/s
Movie name                               : Batman (1989) UHD Remux 4K 2160p HDR H.265 (HEVC) [UKR_ENG] [ViDeO_Hurtom]
Encoded date                             : UTC 2019-08-01 07:19:08
Writing application                      : v30.1.0 ('Forever And More') 64-bit
Writing library                          : libebml v1.3.6 + v1.4.9
Cover                                    : Yes
Attachments                              : cover.jpg

Video
ID                                       : 1
Format                                   : HEVC
Format/Info                              : High Efficiency Video Coding
Commercial name                          : HDR10
Format profile                           : Main [email protected]@High
Codec ID                                 : V_MPEGH/ISO/HEVC
Duration                                 : 2 h 6 min
Bit rate                                 : 70.0 Mb/s
Width                                    : 3 840 pixels
Height                                   : 2 160 pixels
Display aspect ratio                     : 16:9
Frame rate mode                          : Constant
Frame rate                               : 23.976 (24000/1001) FPS
Color space                              : YUV
Chroma subsampling                       : 4:2:0 (Type 2)
Bit depth                                : 10 bits
Bits/(Pixel*Frame)                       : 0.352
Stream size                              : 61.8 GiB (93%)
Title                                    : Remux.2160p.HDR by Silverok
Writing library                          : ATEME Titan File 3.9.0 (4.9.0.0)
Default                                  : Yes
Forced                                   : No
Color range                              : Limited
Color primaries                          : BT.2020
Transfer characteristics                 : PQ
Matrix coefficients                      : BT.2020 non-constant
Mastering display color primaries        : Display P3
Mastering display luminance              : min: 0.0050 cd/m2, max: 4000 cd/m2
Maximum Content Light Level              : 1284 cd/m2
Maximum Frame-Average Light Level        : 113 cd/m2

Audio #1
ID                                       : 2
Format                                   : AC-3
Format/Info                              : Audio Coding 3
Commercial name                          : Dolby Digital
Codec ID                                 : A_AC3
Duration                                 : 2 h 6 min
Bit rate mode                            : Constant
Bit rate                                 : 384 kb/s
Channel(s)                               : 6 channels
Channel layout                           : L R C LFE Ls Rs
Sampling rate                            : 48.0 kHz
Frame rate                               : 31.250 FPS (1536 SPF)
Bit depth                                : 16 bits
Compression mode                         : Lossy
Stream size                              : 347 MiB (1%)
Title                                    : , 3/2 (L,C,R,l,r) + LFE ch, ~384 kbps) | ICTV
Language                                 : Ukrainian
Service kind                             : Complete Main
Default                                  : Yes
Forced                                   : No

Audio #2
ID                                       : 3
Format                                   : AC-3
Format/Info                              : Audio Coding 3
Commercial name                          : Dolby Digital
Codec ID                                 : A_AC3
Duration                                 : 2 h 6 min
Bit rate mode                            : Constant
Bit rate                                 : 640 kb/s
Channel(s)                               : 6 channels
Channel layout                           : L R C LFE Ls Rs
Sampling rate                            : 48.0 kHz
Frame rate                               : 31.250 FPS (1536 SPF)
Bit depth                                : 16 bits
Compression mode                         : Lossy
Stream size                              : 578 MiB (1%)
Title                                    : , 3/2 (L,C,R,l,r) + LFE ch, ~640 kbps
Language                                 : English
Service kind                             : Complete Main
Default                                  : No
Forced                                   : No

Audio #3
ID                                       : 4
Format                                   : MLP FBA 16-ch
Format/Info                              : Meridian Lossless Packing FBA with 16-channel presentation
Commercial name                          : Dolby TrueHD with Dolby Atmos
Codec ID                                 : A_TRUEHD
Duration                                 : 2 h 6 min
Bit rate mode                            : Variable
Bit rate                                 : 3 772 kb/s
Maximum bit rate                         : 6 912 kb/s
Channel(s)                               : 8 channels
Channel layout                           : L R C LFE Ls Rs Lb Rb
Sampling rate                            : 48.0 kHz
Frame rate                               : 1 200.000 FPS (40 SPF)
Compression mode                         : Lossless
Stream size                              : 3.33 GiB (5%)
Title                                    : Atmos TrueHD 7.1, ~3782 kbps
Language                                 : English
Default                                  : No
Forced                                   : No
Number of dynamic objects                : 15
Bed channel count                        : 1 channel
Bed channel configuration                : LFE

Text #1
ID                                       : 5
Format                                   : UTF-8
Codec ID                                 : S_TEXT/UTF8
Codec ID/Info                            : UTF-8 Plain Text
Duration                                 : 2 h 5 min
Bit rate                                 : 43 b/s
Count of elements                        : 1046
Stream size                              : 40.2 KiB (0%)
Title                                    : Full
Language                                 : Ukrainian
Default                                  : No
Forced                                   : No

Text #2
ID                                       : 6
Format                                   : UTF-8
Codec ID                                 : S_TEXT/UTF8
Codec ID/Info                            : UTF-8 Plain Text
Duration                                 : 2 h 3 min
Bit rate                                 : 36 b/s
Count of elements                        : 1002
Stream size                              : 33.4 KiB (0%)
Title                                    : Full
Language                                 : English
Default                                  : No
Forced                                   : No

Text #3
ID                                       : 7
Format                                   : UTF-8
Codec ID                                 : S_TEXT/UTF8
Codec ID/Info                            : UTF-8 Plain Text
Duration                                 : 1 h 59 min
Bit rate                                 : 40 b/s
Count of elements                        : 1105
Stream size                              : 35.7 KiB (0%)
Title                                    : SDH
Language                                 : English
Default                                  : No
Forced                                   : No

Menu
00:00:00.000                             : en:Credits
00:02:33.153                             : en:"I'm Batman"
00:07:03.590                             : en:Looking Fine
00:09:26.566                             : en:Better Be Sure
00:12:21.991                             : en:Knox Meets Vale
00:14:41.839                             : en:Grissom's #1 Guy
00:17:03.564                             : en:Party at Wayne Manor
00:20:05.287                             : en:Their Odd Host
00:23:57.811                             : en:Axis Chemical Ambush
00:27:05.749                             : en:Napier's Plunge
00:30:25.365                             : en:Dinner for Two
00:34:12.259                             : en:Drastic Surgery
00:36:13.546                             : en:Call Me Joker
00:38:24.302                             : en:"Get a Load of Me"
00:41:06.047                             : en:Glad You're Dead
00:45:06.495                             : en:Two Roses
00:48:06.801                             : en:Vengeance - And No Press
00:50:51.465                             : en:So Much to Do
00:54:18.881                             : en:Put On a Happy Face
00:57:54.096                             : en:Cosmetics Scare
00:59:34.070                             : en:Museum Date
01:06:37.785                             : en:Wonderful Toys
01:12:23.923                             : en:Not Exactly Normal
01:16:28.959                             : en:A Name to My Pain
01:18:18.861                             : en:Not Quite Telling Her
01:21:10.449                             : en:Dancing With the Devil
01:25:29.833                             : en:Don't Get Personal
01:27:24.739                             : en:Gauntlet Thrown
01:29:32.701                             : en:Sad Memory; Getting In
01:33:57.799                             : en:Chemical Inferno
01:35:50.119                             : en:Gotham's Greed
01:38:15.556                             : en:The Batwing
01:42:43.616                             : en:Come to Me
01:46:34.013                             : en:Bell Tower Ascent
01:50:10.729                             : en:Bat in My Belfry
01:53:19.960                             : en:Downfalls
01:59:42.967                             : en:Signals
02:02:30.134                             : en:End Credits
Скріншоти




Джерело: &
Особиста оцінка: 9 - давно не бачив настільки якісне кіно
Увага! Перед завантаженням переконайтесь, що ваш пристрій відтворення (та/або ПЗ) підтримує H.265 (HEVC)



Золотий реліз (завантажене не впливає на рейтинг)
 Трекер:    Зареєстрований   

Завантажити / скачати фільм українською



відео для новачків



 Зареєстрований:   2019-08-02 08:32
 Розмір:   66.05 GB 
 Оцінка фільму:   9.9/10 (Голосів: 8)
   
Інші релізи
   Бетмен / Batman (1989) [MP4, 640x] apvAltisimo  0 / 0   842 MB   2016-12-20 18:03 
Lord1493 
Новенький


З нами з: 12.12.14
Востаннє: 27.02.21
Повідомлень: 3

2019-08-11 15:44  
А буде друга частина в 4к?
Anonymous 







2019-09-10 22:59  
Lord1493 написано:
А буде друга частина в 4к?


можу викласти , якщо потрібно всі частини (1989/1992/1995/1997) в Remux 1080p

Anonymous 







2019-09-28 17:59  
9 з 10
[email protected] 
Відео Гуртом - підтримка та поширення
Відео Гуртом - підтримка та поширення


З нами з: 16.06.12
Востаннє: 28.02.21
Повідомлень: 1425

2020-06-06 20:29  
Додайте швидкості трохи)
[email protected] 
Відео Гуртом - підтримка та поширення
Відео Гуртом - підтримка та поширення


З нами з: 16.06.12
Востаннє: 28.02.21
Повідомлень: 1425

2020-06-09 10:03  

Створена роздача на DC++ хабі Толока (сід "Схованка-*" 24/7)

Магніт: magnet:?xt=urn:tree:tiger:5JAQGMNPYHMUUCGZMVRQHFHOF6NP5AOJQ7EWJUY&xl=70915833644&dn=Batman+(1989)+UHD+Remux+4K+2160p+HDR+H.265+(HEVC)+%5BUKR_ENG%5D+%5BViDeO_Hurtom%5D.
Або CTRL+S в клієнті і виконати пошук за хешом: 5JAQGMNPYHMUUCGZMVRQHFHOF6NP5AOJQ7EWJUY

Тема на форумі та як приєднатися: https://toloka.to/t103590

Ваш часовий пояс: GMT + 2 Години

Нова тема   Відповісти