Доктор Хто (Сезон 8) / Doctor Who (Season 8) (2014) 720p 2xUkr/Eng

Нові коментарі

Нова тема   Відповісти
Автор Повідомлення
Anonymous 







2019-08-01 20:29  
Доктор Хто (Сезон 8) / Doctor Who (Season 8) (2014) 720p 2xUkr/Eng



Жанр: пригодницький, драма, сімейний
Країна: Велика Британія



Кінокомпанія: BBC
Режисер: Бен Вітлі
Актори: Пітер Капальді, Дженна Коулман, Нів МакІнтош, Кетрін Стюарт, Ден Старкі.

Сюжет:
За сюжетом, Доктор Хто - легендарний міжгалактичний герой, знаменитий шукач пригод і мандрівник крізь простір і час. У тих далеких світах, звідки він прибув, перед ним схиляються і називають Володарем часу. Його місія - врятувати людську расу від інопланетян, які готуються захопити Землю та знищити людей. Прибульці вже серед нас, вони розсіялися серед людей, але їх підступному задумом ще можна перешкодити.


Тривалість: 1 серія: 45хв (цілком серій: 12 з 12)
Перелік серій
1.Deep Breath / Глубокий вдих
2.Into the Dalek / Всередені Далека
3.Robot of Sherwood / Робот з Шервудського лісу
4.Listen / Слухай
5.Time Heist / Пограбування в часі
6.The Caretaker / Доглядач
7.Kill the Moon / Вбити місяць
8.Mummy on the Orient Express / Мумія у східному експресі
9.Flatline / Площина
10.In the Forest of the Night / Ліс, що виріс за ніч
11.Dark Water / Темна вода
12.Death In Heaven / Смерть у раю
Якість:
Відео:
кодек:
розмір кадру: 1280 х 720
бітрейт: 4622 кб/с

Аудіо # 2:
мова: українська
переклад: багатоголосий закадровий
кодек: 2.0
бітрейт: 192 кб/с
інформація про озвучення
Ролі озвучили: Олександр Солодкий, Михайло Войчук, Єлизавета Зіновенко та Юлія Малахова
Аудіо # 1:
мова: українська
переклад: одноголосий закадровий
кодек: 2.0
бітрейт: 192 кб/с
кількість серій: 11 з 12
інформація про озвучення
Переклад: Юлія Бернацька, Ерік Кулик, West Ukraine
Озвучення і монтаж: Ерік Кулик
Аудіо # 3:
мова: англійська
переклад: оригінал
кодек: 5.1
бітрейт: 384 кб/с
Info
Video
ID : 1
Format : AVC
Format/Info : Advanced Video Codec
Format profile : [email protected]
Format settings : CABAC / 5 Ref Frames
Format settings, CABAC : Yes
Format settings, ReFrames : 5 frames
Codec ID : V_MPEG4/ISO/AVC
Duration : 1 h 16 min
Bit rate : 4 622 kb/s
Width : 1 280 pixels
Height : 720 pixels
Display aspect ratio : 16:9
Frame rate mode : Constant
Frame rate : 25.000 FPS
Color space : YUV
Chroma subsampling : 4:2:0
Bit depth : 8 bits
Scan type : Progressive
Bits/(Pixel*Frame) : 0.201
Stream size : 2.47 GiB (89%)
Writing library : core 142 r2479 dd79a61
Encoding settings : cabac=1 / ref=5 / deblock=1:-2:-2 / analyse=0x3:0x113 / me=umh / subme=8 / psy=1 / psy_rd=1.00:0.00 / mixed_ref=1 / me_range=16 / chroma_me=1 / trellis=1 / 8x8dct=1 / cqm=0 / deadzone=21,11 / fast_pskip=1 / chroma_qp_offset=-2 / threads=6 / lookahead_threads=1 / sliced_threads=0 / nr=0 / decimate=1 / interlaced=0 / bluray_compat=0 / constrained_intra=0 / bframes=3 / b_pyramid=2 / b_adapt=2 / b_bias=0 / direct=3 / weightb=1 / open_gop=0 / weightp=2 / keyint=250 / keyint_min=25 / scenecut=40 / intra_refresh=0 / rc_lookahead=50 / rc=2pass / mbtree=1 / bitrate=4622 / ratetol=1.0 / qcomp=0.60 / qpmin=0 / qpmax=69 / qpstep=4 / cplxblur=20.0 / qblur=0.5 / ip_ratio=1.40 / aq=1:1.00
Language : English
Default : Yes
Forced : No

Audio #1
ID : 2
Format : AC-3
Format/Info : Audio Coding 3
Commercial name : Dolby Digital
Codec ID : A_AC3
Duration : 1 h 16 min
Bit rate mode : Constant
Bit rate : 192 kb/s
Channel(s) : 2 channels
Channel layout : L R
Sampling rate : 48.0 kHz
Frame rate : 31.250 FPS (1536 SPF)
Bit depth : 16 bits
Compression mode : Lossy
Stream size : 105 MiB (4%)
Title : VO - NewSchoolSound
Language : Ukrainian
Service kind : Complete Main
Default : Yes
Forced : No

Audio #2
ID : 3
Format : AC-3
Format/Info : Audio Coding 3
Commercial name : Dolby Digital
Codec ID : A_AC3
Duration : 1 h 16 min
Bit rate mode : Constant
Bit rate : 384 kb/s
Channel(s) : 6 channels
Channel layout : L R C LFE Ls Rs
Sampling rate : 48.0 kHz
Frame rate : 31.250 FPS (1536 SPF)
Bit depth : 16 bits
Compression mode : Lossy
Stream size : 210 MiB (7%)
Language : English
Service kind : Complete Main
Default : No
Forced : No

Menu
00:00:00.000 : en:00:00:00.000
00:06:37.120 : en:00:06:37.120
00:11:46.600 : en:00:11:46.600
00:17:35.040 : en:00:17:35.040
00:23:57.200 : en:00:23:57.200
00:32:50.320 : en:00:32:50.320
00:40:21.400 : en:00:40:21.400
00:48:53.680 : en:00:48:53.680
00:56:33.200 : en:00:56:33.200
00:59:20.920 : en:00:59:20.920
01:06:50.880 : en:01:06:50.880
01:15:58.960 : en:01:15:58.960
скріншоти












Джерело:
Особиста оцінка: 10 - без зайвих вагань рекомендую всім!





Бронзовий реліз (на рейтинг впливає 75% завантаженого)
 Трекер:    Зареєстрований   

Завантажити / скачати серіал українською



відео для новачків



 Зареєстрований:   2019-09-11 17:33
 Розмір:   24.21 GB 
 Оцінка серіалу:   10/10 (Голосів: 12)
   
bot 
робот


З нами з: 30.09.07
Востаннє: 26.05.05
Повідомлень: 26482

2019-08-01 20:29  
Тему перенесено з Серіали в HD до форуму Анонси релізів


leicheman

Anonymous 







2019-08-01 20:35  
del
Seriy100293 
VIP


З нами з: 17.08.11
Востаннє: 04.12.20
Повідомлень: 464

2019-08-02 11:04  
Увесь сезон буде?
Там К1 якогось нового Доктора обіцяв

Anonymous 







2019-08-02 11:09  
del
Seriy100293 
VIP


З нами з: 17.08.11
Востаннє: 04.12.20
Повідомлень: 464

2019-08-05 19:24  
А у пана NewSchoolSound є бажання озвучити 12 серію?
Anonymous 







2019-08-05 19:27  
del
bot 
робот


З нами з: 30.09.07
Востаннє: 26.05.05
Повідомлень: 26482

2019-09-11 17:33  
Тему перенесено з Анонси релізів до форуму Серіали в HD


leicheman

ivasykus 
VIP


З нами з: 10.02.09
Востаннє: 01.12.20
Повідомлень: 603

2019-09-19 19:31  
А К1 дев'ятий сезон взагалі показували? А то зараз увімкнув, а там перший епізод десятого.
tilda4334 
VIP


З нами з: 15.08.14
Востаннє: 05.12.20
Повідомлень: 1183

2019-09-19 19:41  
ivasykus
Показували.

Anonymous 







2020-02-01 10:01  
Сезон 9 та інші знаходиться у цій роздачі https://toloka.to/t101382
jetty 
Новенький


З нами з: 01.03.15
Востаннє: 05.12.20
Повідомлень: 3

2020-07-07 20:12  
Geronimo!
Ваш часовий пояс: GMT + 2 Години

Нова тема   Відповісти