1984 / Тисяча дев'ятсот вісімдесят четвертий / Nineteen Eighty-Four (1984) [Criterion Collection] 1080p H.265 3xUkr/Eng | Sub Ukr/Eng

Нові коментарі

Нова тема   Відповісти
Автор Повідомлення
Anonymous 







2019-07-31 22:31  
1984 / Тисяча дев'ятсот вісімдесят четвертий / Nineteen Eighty-Four (1984) [Criterion Collection] 1080p H.265 3xUkr/Eng | Sub Ukr/Eng

1984 / Тисяча дев'ятсот вісімдесят четвертий / Nineteen Eighty-Four (1984) [Criterion Collection] 1080p H.265 3xUkr/Eng | Sub Ukr/Eng


Жанр: драма, фантастика
Країна: Велика Британія
Кінокомпанія: Umbrella-Rosenblum Films Production, Virgin Benelux, Virgin Schallplatten
Режисер: Майкл Редфорд / Michael Radford
Актори: Джон Герт / John Hurt, Річард Бертон / Richard Burton, Сюзанна Гамільтон / Suzanna Hamilton, Сиріл К'юсак / Cyril Cusack, Ґреґор Фішер / Gregor Fisher, Джеймс Bокер / James Walker, Андрю Bайлд / Andrew Wilde, Девід Тревена / David Trevena, Девід Канн / David Cann, Ентоні Бенсон / Anthony Benson, Пітер Фрей / Peter Frye, Роджер Ллойд-Пак / Roger Lloyd-Pack, Руперт Бадерман / Rupert Baderman, Корінна Седдон / Corinna Seddon, Марта Парсей / Martha Parsey та інші.

Сюжет:
Фільм знятий за романом Джорджа Орвелла «1984». Член зовнішньої Партії Вінстон Сміт намагається протистояти самій Партії, надзвичайно жорстокому тоталітарному режиму. Він та його кохана Джулія сподіваються на те, що Опір , таємна організація, що протистоїть режиму, або проли (пролетаріат) зуміють знищити Партію хоч в далекому майбутньому. Але їх надії виявляються марними. Опір - вигадка влади, проли ніколи не піднімуть повстання, а будь-якого інакодумця Партія ламає, перетворюючи на такого ж, як вони.

Тривалість: 01:50:38
Якість: [Criterion Collection]
Відео:
кодек: H.265 (HEVC)
розмір кадру: 1920 x 1032
бітрейт: 6 859 кб/с
бітова глибина: 10 біт
Увага! Перед завантаженням переконайтесь, що ваш пристрій відтворення (та/або ПЗ) підтримує H.265 (HEVC)

Аудіо # 1:
мова: українська
переклад: професійний дубльований
кодек: AC-3 2.0
бітрейт: 192 кб/с

Аудіо # 2:
мова: українська
переклад: багатоголосий закадровий
кодек: AC-3 2.0
бітрейт: 192 кб/с

Аудіо # 3:
мова: українська
переклад: двоголосий закадровий
кодек: AC-3 2.0
бітрейт: 192 кб/с

Аудіо # 4:
мова: англійська
переклад: оригінал
кодек: PCM 1.0
бітрейт: 1153 кб/с

Субтитри # 1:
мова: українська (Full by SergoMozaic & AlanAlan),
тип: програмні (м'які)
формат: *.srt

Субтитри # 2:
мова: англійська (Full),
тип: програмні (м'які)
формат: *.srt


Info
Код:
General
Unique ID                                : 190551750274269666639888270968376188461 (0x8F5AEEA367A9F12D893C80814A36DE2D)
Complete name                            : Nineteen Eighty-Four (1984) [Criterion Collection] 1080p H.265 [3xUKR_ENG] [Hurtom].
Format                                   :
Format version                           : Version 4 / Version 2
File size                                : 6.64 GiB
Duration                                 : 1 h 50 min
Overall bit rate                         : 8 592 kb/s
Movie name                               : 1984 / Тисяча дев'ятсот вісімдесят четвертий / Nineteen Eighty-Four (1984)
Encoded date                             : UTC 2019-07-31 20:26:08
Writing application                      : v20.0.0 ('I Am The Sun') 64-bit
Writing library                          : libebml v1.3.5 + v1.4.8
Cover                                    : Yes
Attachments                              : Cover.jpg

Video
ID                                       : 1
Format                                   : HEVC
Format/Info                              : High Efficiency Video Coding
Format profile                           : Main [email protected]@High
Codec ID                                 : V_MPEGH/ISO/HEVC
Duration                                 : 1 h 50 min
Bit rate                                 : 6 859 kb/s
Width                                    : 1 920 pixels
Height                                   : 1 032 pixels
Display aspect ratio                     : 1.85:1
Frame rate mode                          : Constant
Frame rate                               : 23.976 (24000/1001) FPS
Color space                              : YUV
Chroma subsampling                       : 4:2:0
Bit depth                                : 10 bits
Bits/(Pixel*Frame)                       : 0.144
Stream size                              : 5.30 GiB (80%)
Title                                    : 1984 / Тисяча дев'ятсот вісімдесят четвертий / Nineteen Eighty-Four (1984)
Language                                 : English
Default                                  : Yes
Forced                                   : No
Color range                              : Limited
Color primaries                          : BT.709
Transfer characteristics                 : BT.709
Matrix coefficients                      : BT.709

Audio #1
ID                                       : 2
Format                                   : AC-3
Format/Info                              : Audio Coding 3
Codec ID                                 : A_AC3
Duration                                 : 1 h 50 min
Bit rate mode                            : Constant
Bit rate                                 : 192 kb/s
Channel(s)                               : 2 channels
Channel positions                        : Front: L R
Sampling rate                            : 48.0 kHz
Frame rate                               : 31.250 FPS (1536 SPF)
Bit depth                                : 16 bits
Compression mode                         : Lossy
Stream size                              : 152 MiB (2%)
Title                                    : / 2.0 Ch / 192 kbps / ПД / NLO
Language                                 : Ukrainian
Service kind                             : Complete Main
Default                                  : Yes
Forced                                   : Yes

Audio #2
ID                                       : 3
Format                                   : AC-3
Format/Info                              : Audio Coding 3
Codec ID                                 : A_AC3
Duration                                 : 1 h 50 min
Bit rate mode                            : Constant
Bit rate                                 : 192 kb/s
Channel(s)                               : 2 channels
Channel positions                        : Front: L R
Sampling rate                            : 48.0 kHz
Frame rate                               : 31.250 FPS (1536 SPF)
Bit depth                                : 16 bits
Compression mode                         : Lossy
Stream size                              : 152 MiB (2%)
Title                                    : / 2.0 Ch / 192 kbps / БЗ / AMC
Language                                 : Ukrainian
Service kind                             : Complete Main
Default                                  : No
Forced                                   : No

Audio #3
ID                                       : 4
Format                                   : AC-3
Format/Info                              : Audio Coding 3
Codec ID                                 : A_AC3
Duration                                 : 1 h 50 min
Bit rate mode                            : Constant
Bit rate                                 : 192 kb/s
Channel(s)                               : 2 channels
Channel positions                        : Front: L R
Sampling rate                            : 48.0 kHz
Frame rate                               : 31.250 FPS (1536 SPF)
Bit depth                                : 16 bits
Compression mode                         : Lossy
Stream size                              : 152 MiB (2%)
Title                                    : / 2.0 Ch / 192 kbps / ДЗ / 1+1
Language                                 : Ukrainian
Service kind                             : Complete Main
Default                                  : No
Forced                                   : No

Audio #4
ID                                       : 5
Format                                   : PCM
Format settings                          : Little / Signed
Codec ID                                 : A_PCM/INT/LIT
Duration                                 : 1 h 50 min
Bit rate mode                            : Constant
Bit rate                                 : 1 152 kb/s
Sampling rate                            : 48.0 kHz
Frame rate                               : 200.000 FPS (240 SPF)
Bit depth                                : 24 bits
Stream size                              : 912 MiB (13%)
Title                                    : PCM / 1.0 Ch / 1152 kbps / Original
Language                                 : English
Default                                  : No
Forced                                   : No

Text #1
ID                                       : 6
Format                                   : UTF-8
Codec ID                                 : S_TEXT/UTF8
Codec ID/Info                            : UTF-8 Plain Text
Duration                                 : 1 h 46 min
Bit rate                                 : 79 b/s
Count of elements                        : 1098
Stream size                              : 61.8 KiB (0%)
Title                                    : Full by SergoMozaic & AlanAlan
Language                                 : Ukrainian
Default                                  : Yes
Forced                                   : No

Text #2
ID                                       : 7
Format                                   : UTF-8
Codec ID                                 : S_TEXT/UTF8
Codec ID/Info                            : UTF-8 Plain Text
Duration                                 : 1 h 48 min
Bit rate                                 : 46 b/s
Count of elements                        : 941
Stream size                              : 37.0 KiB (0%)
Title                                    : Full
Language                                 : English
Default                                  : No
Forced                                   : No

Menu
00:00:00.000                             : :Chapter 01
00:06:12.997                             : :Chapter 02
00:11:50.876                             : :Chapter 03
00:20:18.175                             : :Chapter 04
00:27:41.951                             : :Chapter 05
00:34:21.017                             : :Chapter 06
00:40:26.340                             : :Chapter 07
00:47:45.028                             : :Chapter 08
01:01:26.224                             : :Chapter 09
01:15:18.305                             : :Chapter 10
01:20:02.130                             : :Chapter 11
01:26:42.989                             : :Chapter 12
01:37:25.840                             : :Chapter 13
01:40:56.050                             : :Chapter 14
Світлини




Джерело: &
Особиста оцінка: 10 - без зайвих вагань рекомендую всім!


Срібний реліз (на рейтинг впливає 50% завантаженого)
 Трекер:    Зареєстрований   

Завантажити / скачати фільм українською



відео для новачків



 Зареєстрований:   2019-07-31 22:31
 Розмір:   6.64 GB 
 Оцінка фільму:   9.7/10 (Голосів: 10)
   
andr1ev 
Свій


З нами з: 17.01.12
Востаннє: 07.01.20
Повідомлень: 63

2019-12-11 21:51  
Рекомендую подивитись, почитати крім Легендарного фільму 1984 про тотальний контроль також «Який чудесний світ новий!», або «Прекра́сний нови́й світ» Гакслі
Ваш часовий пояс: GMT + 2 Години

Нова тема   Відповісти