Земля до початку часів 2. Пригоди у Великій долині / The Land Before Time II: The Great Valley Adventure (1994) 1080p Ukr/Eng | Sub Eng

Нові коментарі

Нова тема   Відповісти
Автор Повідомлення
sergiyko.5 
VIP


З нами з: 25.02.16
Востаннє: 29.02.20
Повідомлень: 2959

2019-07-31 18:08  
Земля до початку часів 2. Пригоди у Великій долині / The Land Before Time II: The Great Valley Adventure (1994) 1080p Ukr/Eng | Sub Eng

Земля до початку часів 2. Пригоди у Великій долині / The Land Before Time II: The Great Valley Adventure (1994) 1080p Ukr/Eng | Sub Eng

Жанр: мультфільм, пригоди, сімейний
Країна: США
Режисер: Рой Ален Сміт
Актори: Скот МакЕфі, Кендес Хатсон, Хезер Хоган

Сюжет:
Дія другої частини відбувається у знайомій вам Великій Долині, де граються діти - динозаврики під наглядом своїх батьків. Але одного разу непосидючі хлопчики та дівчата вислизнули з-під пильного ока своїх рідних і опинилися саме там, де недосвідчену дітвору підстерігають несподіванки й небезпеки.

Пригоди починаються! На динозавриків чекають зустрічі з новими знайомими: злодіями Оззі та Стратом, зі страшними Гострозубами і... таємничим яйцем!




Тривалість: 01:13:49
Якість:

Відео: кодек: розмір кадру: 1440 х 1080 бітрейт: 14200 кб/с
Аудіо # 1: мова: українська переклад: професійний дубльований кодек: 2.0 бітрейт: 192 кб/с
Озвучення:
Аудіо # 2: мова: англійська переклад: оригінал кодек: Е- 2.0 бітрейт: 224 кб/с
Субтитри: мова: англійська тип: програмні (м'які) формат: *.srt
Про файл:
General
Unique ID : 6568061272099772679365005452693066624 (0x4F0F66C2BA54EE2816B4BB7D495D380)
Complete name : E:\content\films\The Land Before Time II.The Great Valley Adventure.1080p..
Format :
Format version : Version 4
File size : 7.53 GiB
Duration : 1 h 13 min
Overall bit rate mode : Variable
Overall bit rate : 14.6 Mb/s
Movie name : The Land Before Time II.The Great Valley Adventure.1080p. by sergiyko
Encoded date : UTC 2019-07-31 15:53:09
Writing application : v35.0.0 ('All The Love In The World') 64-bit
Writing library : libebml v1.3.9 + v1.5.2

Video
ID : 1
Format : AVC
Format/Info : Advanced Video Codec
Format profile : [email protected]
Format settings : CABAC / 4 Ref Frames
Format settings, CABAC : Yes
Format settings, Reference : 4 frames
Codec ID : V_MPEG4/ISO/AVC
Duration : 1 h 13 min
Bit rate mode : Variable
Bit rate : 14.2 Mb/s
Maximum bit rate : 15.0 Mb/s
Width : 1 440 pixels
Height : 1 080 pixels
Display aspect ratio : 4:3
Frame rate mode : Constant
Frame rate : 23.976 (24000/1001) FPS
Color space : YUV
Chroma subsampling : 4:2:0
Bit depth : 8 bits
Scan type : Progressive
Bits/(Pixel*Frame) : 0.381
Stream size : 7.32 GiB (97%)
Title : The Land Before Time II The Great Valley Adventure
Writing library : core 148 r2623 d5b2374
Encoding settings : cabac=1 / ref=4 / deblock=1:-1:-1 / analyse=0x3:0x133 / me=umh / subme=9 / psy=1 / psy_rd=1.00:0.15 / mixed_ref=1 / me_range=24 / chroma_me=1 / trellis=2 / 8x8dct=1 / cqm=0 / deadzone=21,11 / fast_pskip=1 / chroma_qp_offset=-3 / threads=34 / lookahead_threads=5 / sliced_threads=0 / nr=150 / decimate=1 / interlaced=0 / bluray_compat=0 / constrained_intra=0 / bframes=8 / b_pyramid=2 / b_adapt=2 / b_bias=0 / direct=3 / weightb=1 / open_gop=0 / weightp=2 / keyint=120 / keyint_min=61 / scenecut=0 / intra_refresh=0 / rc_lookahead=120 / rc=crf / mbtree=1 / crf=18.0 / qcomp=0.60 / qpmin=0 / qpmax=69 / qpstep=4 / vbv_maxrate=15000 / vbv_bufsize=31250 / crf_max=0.0 / nal_hrd=vbr / filler=0 / ip_ratio=1.40 / aq=3:1.00
Language : English
Default : Yes
Forced : No
Color range : Limited
Color primaries : BT.709
Transfer characteristics : BT.709
Matrix coefficients : BT.709

Audio #1
ID : 2
Format : AC-3
Format/Info : Audio Coding 3
Commercial name : Dolby Digital
Codec ID : A_AC3
Duration : 1 h 13 min
Bit rate mode : Constant
Bit rate : 192 kb/s
Channel(s) : 2 channels
Channel layout : L R
Sampling rate : 48.0 kHz
Frame rate : 31.250 FPS (1536 SPF)
Bit depth : 16 bits
Compression mode : Lossy
Stream size : 101 MiB (1%)
Title : DUB | K1
Language : Ukrainian
Service kind : Complete Main
Default : Yes
Forced : Yes

Audio #2
ID : 3
Format : E-AC-3
Format/Info : Enhanced AC-3
Commercial name : Dolby Digital Plus
Codec ID : A_EAC3
Duration : 1 h 13 min
Bit rate mode : Constant
Bit rate : 224 kb/s
Channel(s) : 2 channels
Channel layout : L R
Sampling rate : 48.0 kHz
Frame rate : 31.250 FPS (1536 SPF)
Compression mode : Lossy
Stream size : 118 MiB (2%)
Title : Original
Language : English
Service kind : Complete Main
Default : No
Forced : No

Text
ID : 4
Format : UTF-8
Codec ID : S_TEXT/UTF8
Codec ID/Info : UTF-8 Plain Text
Duration : 1 h 9 min
Bit rate : 46 b/s
Count of elements : 950
Stream size : 23.5 KiB (0%)
Language : English
Default : No
Forced : No

Menu
00:00:00.000 : en:Studio Logos
00:01:04.000 : en:The gang plays in the Peaceful Valley
00:05:32.000 : en:Littlefoot wants to be older
00:07:19.000 : en:Ozzy and Strut try to steal eggs
00:10:32.000 : en:The gang tries to cross the sinking sand
00:13:25.000 : en:Ozzy praises eggs and Littlefoot is put to bed
00:17:42.000 : en:The little ones are tired of being treated like little ones
00:29:50.000 : en:The gang returns with the egg
00:31:02.000 : en:The gang decides what to do with the egg
00:31:56.000 : en:Grandma wakes Littlefoot up
00:32:32.000 : en:Ozzy vows revenge on those meddling kids
00:33:17.000 : en:The egg hatches
00:37:59.000 : en:Littlefoot decides to raise Chomper and saves his friends
00:46:49.000 : en:Ozzy and Strut pull themselves up
00:47:12.000 : en:The gang looks for Chomper
00:49:36.000 : en:The gang looks for Chomper while trying to avoid danger
01:02:06.000 : en:Chomper is reunited with his kind
01:04:04.000 : en:Chomper saves Littlefoot
01:05:57.000 : en:The dinosaurs close the hole
01:07:16.000 : en:Everyone is called home for dinner
01:08:12.000 : en:End Credits
Скріншоти:


Запис: Bohdan237
Зведення: sergiyko


Срібний реліз (на рейтинг впливає 50% завантаженого)
 Трекер:    Зареєстрований   

Завантажити / скачати мультфільм українською



відео для новачків



 Зареєстрований:   2019-07-31 19:36
 Розмір:   7.53 GB 
 Оцінка мультфільму:   9.9/10 (Голосів: 7)
   
max factor 
Частий відвідувач


З нами з: 08.01.19
Востаннє: 08.02.20
Повідомлень: 31

2019-08-02 13:42  
Дякую за мультфільм! Всього доброго.
Ваш часовий пояс: GMT + 2 Години

Нова тема   Відповісти