Посіпаки-газонострижаки / Mower Minions (2016) 1080p H.265 Ukr/Eng | Sub Eng

Нові коментарі

Нова тема   Відповісти
Автор Повідомлення
Anonymous 







2019-07-31 13:33  
Посіпаки-газонострижаки / Mower Minions (2016) 1080p H.265 Ukr/Eng | Sub Eng

Посіпаки-газонострижаки / Mower Minions (2016) 1080p H.265 Ukr/Eng | Sub Eng


Жанр: мультфільм, короткометражний, комедія, сімейний
Країна: США
Кінокомпанія: Illumination Entertainment
Режисер: Бруно Шоффард, Гленн МакКой
Актори: П'єр Коффан, Джоді Гелб, Дейв Розенбаум

Сюжет:
Посіпаки хочуть купити блендер, щоб робити банановий сік. У скарбничці грошей на покупку не вистачає, і вони вирішують заробити необхідну суму ...

Тривалість: 00:04:12
Якість:
Відео:
кодек: H.265 (HEVC)
розмір кадру: 1920 x 1036
бітрейт: 9 037 кб/с
бітова глибина: 10 біт
Увага! Перед завантаженням переконайтесь, що ваш пристрій відтворення (та/або ПЗ) підтримує H.265 (HEVC)

Аудіо # 1:
мова: українська
переклад: професійний дубльований
кодек: AC-3 5.1
бітрейт: 640 кб/с

Аудіо # 2:
мова: англійська
переклад: оригінал
кодек: 5.1
бітрейт: 1510 кб/с

Субтитри # 1:
мова: українська (Forced),
тип: програмні (м'які)
формат: *.srt

Субтитри # 2:
мова: англійська (Full),
тип: програмні (м'які)
формат: *.srt


Info
Код:
General
Unique ID                                : 86880530716232728457439235676310492684 (0x415C94E1B5D18649227A1E576BAE560C)
Complete name                            : Mower Minions (2016) 1080p H.265 [UKR_ENG] [Hurtom].
Format                                   :
Format version                           : Version 4 / Version 2
File size                                : 337 MiB
Duration                                 : 4 min 12 s
Overall bit rate                         : 11.2 Mb/s
Movie name                               : Посіпаки-газонострижаки / Mower Minions (2016)
Encoded date                             : UTC 2019-07-31 11:28:03
Writing application                      : v32.0.0 ('Astral Progressions') 64-bit
Writing library                          : libebml v1.3.7 + v1.5.0
Cover                                    : Yes
Attachments                              : Cover.jpg

Video
ID                                       : 1
Format                                   : HEVC
Format/Info                              : High Efficiency Video Coding
Format profile                           : Main [email protected]@High
Codec ID                                 : V_MPEGH/ISO/HEVC
Duration                                 : 4 min 12 s
Bit rate                                 : 9 036 kb/s
Width                                    : 1 920 pixels
Height                                   : 1 036 pixels
Display aspect ratio                     : 1.85:1
Frame rate mode                          : Constant
Frame rate                               : 23.976 (24000/1001) FPS
Color space                              : YUV
Chroma subsampling                       : 4:2:0
Bit depth                                : 10 bits
Bits/(Pixel*Frame)                       : 0.189
Stream size                              : 272 MiB (81%)
Title                                    : Посіпаки-газонострижаки / Mower Minions (2016)
Writing library                          : x265 3.1+4-4f6dde51a5db:[Windows][clang 8.0.0][64 bit] 10bit
Encoding settings                        : cpuid=1111039 / frame-threads=9 / numa-pools=8 / wpp / no-pmode / no-pme / no-psnr / no-ssim / log-level=3 / input-csp=1 / input-res=1920x1036 / interlace=0 / total-frames=0 / level-idc=51 / high-tier=1 / uhd-bd=0 / ref=5 / allow-non-conformance / no-repeat-headers / annexb / no-aud / no-hrd / info / hash=0 / no-temporal-layers / open-gop / min-keyint=24 / keyint=240 / gop-lookahead=0 / bframes=8 / b-adapt=2 / b-pyramid / bframe-bias=0 / rc-lookahead=40 / lookahead-slices=6 / scenecut=40 / radl=0 / no-splice / no-intra-refresh / ctu=64 / min-cu-size=8 / rect / amp / max-tu-size=32 / tu-inter-depth=4 / tu-intra-depth=4 / limit-tu=0 / rdoq-level=2 / dynamic-rd=0.00 / no-ssim-rd / signhide / no-tskip / nr-intra=0 / nr-inter=0 / no-constrained-intra / no-strong-intra-smoothing / max-merge=3 / limit-refs=1 / no-limit-modes / me=3 / subme=7 / merange=57 / temporal-mvp / weightp / weightb / no-analyze-src-pics / deblock=-3:-3 / no-sao / no-sao-non-deblock / rd=6 / early-skip / rskip / no-fast-intra / no-tskip-fast / no-cu-lossless / b-intra / no-splitrd-skip / rdpenalty=0 / psy-rd=2.00 / psy-rdoq=1.00 / no-rd-refine / no-lossless / cbqpoffs=0 / crqpoffs=0 / rc=crf / crf=18.0 / qcomp=0.65 / qpstep=4 / stats-write=0 / stats-read=0 / vbv-maxrate=50000 / vbv-bufsize=50000 / vbv-init=0.9 / crf-max=0.0 / crf-min=0.0 / ipratio=1.40 / pbratio=1.30 / aq-mode=2 / aq-strength=1.00 / cutree / zone-count=0 / no-strict-cbr / qg-size=32 / no-rc-grain / qpmax=69 / qpmin=0 / no-const-vbv / sar=1 / overscan=0 / videoformat=5 / range=0 / colorprim=2 / transfer=2 / colormatrix=2 / chromaloc=0 / display-window=0cll=0,0 / min-luma=0 / max-luma=1023 / log2-max-poc-lsb=8 / vui-timing-info / vui-hrd-info / slices=1 / no-opt-qp-pps / no-opt-ref-list-length-pps / no-multi-pass-opt-rps / scenecut-bias=0.05 / no-opt-cu-delta-qp / no-aq-motion / no-hdr / no-hdr-opt / no-dhdr10-opt / no-idr-recovery-sei / analysis-reuse-level=5 / scale-factor=0 / refine-intra=0 / refine-inter=0 / refine-mv=0 / refine-ctu-distortion=0 / no-limit-sao / ctu-info=0 / no-lowpass-dct / refine-analysis-type=180306944 / copy-pic=1 / max-ausize-factor=1.0 / no-dynamic-refine / no-single-sei / no-hevc-aq / no-svt / no-field / qp-adaptation-range=1.00
Language                                 : English
Default                                  : Yes
Forced                                   : No
Color range                              : Limited

Audio #1
ID                                       : 2
Format                                   : AC-3
Format/Info                              : Audio Coding 3
Codec ID                                 : A_AC3
Duration                                 : 4 min 12 s
Bit rate mode                            : Constant
Bit rate                                 : 640 kb/s
Channel(s)                               : 6 channels
Channel positions                        : Front: L C R, Side: L R, LFE
Sampling rate                            : 48.0 kHz
Frame rate                               : 31.250 FPS (1536 SPF)
Bit depth                                : 16 bits
Compression mode                         : Lossy
Stream size                              : 19.2 MiB (6%)
Title                                    : / 5.1 Ch / 640 kbps / ПД / Blu-Ray
Language                                 : Ukrainian
Service kind                             : Complete Main
Default                                  : Yes
Forced                                   : Yes

Audio #2
ID                                       : 3
Format                                   :
Format/Info                              : Digital Theater Systems
Codec ID                                 : A_DTS
Duration                                 : 4 min 12 s
Bit rate mode                            : Constant
Bit rate                                 : 1 509 kb/s
Channel(s)                               : 6 channels
Channel positions                        : Front: L C R, Side: L R, LFE
Sampling rate                            : 48.0 kHz
Frame rate                               : 93.750 FPS (512 SPF)
Bit depth                                : 16 bits
Compression mode                         : Lossy
Stream size                              : 45.4 MiB (13%)
Title                                    : / 5.1 Ch / 1509 kbps / Original
Language                                 : English
Default                                  : No
Forced                                   : No

Text #1
ID                                       : 4
Format                                   : UTF-8
Codec ID                                 : S_TEXT/UTF8
Codec ID/Info                            : UTF-8 Plain Text
Duration                                 : 4 min 0 s
Bit rate                                 : 13 b/s
Count of elements                        : 13
Stream size                              : 412 Bytes (0%)
Title                                    : Forced
Language                                 : Ukrainian
Default                                  : Yes
Forced                                   : Yes

Text #2
ID                                       : 5
Format                                   : UTF-8
Codec ID                                 : S_TEXT/UTF8
Codec ID/Info                            : UTF-8 Plain Text
Duration                                 : 3 min 59 s
Bit rate                                 : 61 b/s
Count of elements                        : 96
Stream size                              : 1.80 KiB (0%)
Title                                    : Full
Language                                 : English
Default                                  : No
Forced                                   : No
Світлини




Джерело: &
Особиста оцінка: 0 - не дивився


 Трекер:    Зареєстрований   

Завантажити / скачати мультфільм українською



відео для новачків



 Зареєстрований:   2019-07-31 13:33
 Розмір:   337 MB 
 Оцінка мультфільму:   10/10 (Голосів: 16)
   
gary03 
Новенький


З нами з: 07.03.17
Востаннє: 26.02.21
Повідомлень: 17

2020-10-25 21:46  
роздайте , будь ласка!
CVI 
Новенький


З нами з: 23.02.09
Востаннє: 23.02.21
Повідомлень: 6

2020-11-19 14:28  
А в простішому кодеці не буде?
Masanchick 
VIP


З нами з: 08.04.11
Востаннє: 27.02.21
Повідомлень: 1177

2020-11-19 14:54  
CVI
вибирайте
https://toloka.to/tracker.php?prev_sd=0&prev_a=0&prev_my=0&prev_n=0&prev_shc=0&prev_shf=1&prev_sha=1&prev_cg=0&prev_ct=0&prev_at=0&prev_nt=0&prev_de=0&prev_nd=0&prev_tcs=1&prev_shs=0&f%5B%5D=117&f%5B%5D=84&f%5B%5D=42&f%5B%5D=124&f%5B%5D=125&f%5B%5D=129&f%5B%5D=219&f%5B%5D=118&f%5B%5D=16&f%5B%5D=32&f%5B%5D=19&f%5B%5D=44&f%5B%5D=127&f%5B%5D=55&f%5B%5D=94&f%5B%5D=144&f%5B%5D=190&f%5B%5D=70&f%5B%5D=192&f%5B%5D=193&f%5B%5D=195&f%5B%5D=194&f%5B%5D=196&f%5B%5D=197&f%5B%5D=225&f%5B%5D=21&f%5B%5D=131&f%5B%5D=226&f%5B%5D=227&f%5B%5D=228&f%5B%5D=229&f%5B%5D=230&f%5B%5D=119&f%5B%5D=18&f%5B%5D=132&f%5B%5D=157&f%5B%5D=235&f%5B%5D=170&f%5B%5D=162&f%5B%5D=166&f%5B%5D=167&f%5B%5D=168&f%5B%5D=169&f%5B%5D=54&f%5B%5D=158&f%5B%5D=159&f%5B%5D=160&f%5B%5D=161&f%5B%5D=136&f%5B%5D=96&f%5B%5D=173&f%5B%5D=139&f%5B%5D=174&f%5B%5D=140&f%5B%5D=120&f%5B%5D=66&f%5B%5D=137&f%5B%5D=138&f%5B%5D=237&f%5B%5D=33&f%5B%5D=8&f%5B%5D=23&f%5B%5D=24&f%5B%5D=43&f%5B%5D=35&f%5B%5D=37&f%5B%5D=36&f%5B%5D=38&f%5B%5D=56&f%5B%5D=98&f%5B%5D=100&f%5B%5D=101&f%5B%5D=102&f%5B%5D=103&f%5B%5D=104&f%5B%5D=105&f%5B%5D=106&f%5B%5D=11&f%5B%5D=134&f%5B%5D=177&f%5B%5D=178&f%5B%5D=179&f%5B%5D=180&f%5B%5D=183&f%5B%5D=181&f%5B%5D=182&f%5B%5D=184&f%5B%5D=185&f%5B%5D=135&f%5B%5D=186&f%5B%5D=187&f%5B%5D=189&f%5B%5D=9&f%5B%5D=25&f%5B%5D=199&f%5B%5D=200&f%5B%5D=201&f%5B%5D=202&f%5B%5D=239&f%5B%5D=26&f%5B%5D=27&f%5B%5D=240&f%5B%5D=211&f%5B%5D=122&f%5B%5D=40&f%5B%5D=241&f%5B%5D=203&f%5B%5D=12&f%5B%5D=249&f%5B%5D=10&f%5B%5D=28&f%5B%5D=259&f%5B%5D=29&f%5B%5D=30&f%5B%5D=41&f%5B%5D=212&f%5B%5D=205&f%5B%5D=236&f%5B%5D=71&f%5B%5D=72&f%5B%5D=73&f%5B%5D=74&f%5B%5D=75&f%5B%5D=76&f%5B%5D=121&f%5B%5D=45&f%5B%5D=46&f%5B%5D=47&f%5B%5D=48&f%5B%5D=208&f%5B%5D=15&o=1&s=2&tm=-1&shf=1&sha=1&tcs=1&sns=-1&sds=-1&nm=%D0%9F%D0%BE%D1%81%D1%96%D0%BF%D0%B0%D0%BA%D0%B8-%D0%B3%D0%B0%D0%B7%D0%BE%D0%BD%D0%BE%D1%81%D1%82%D1%80%D0%B8%D0%B6%D0%B0%D0%BA%D0%B8&pn=&send=%D0%9F%D0%BE%D1%88%D1%83%D0%BA

CVI 
Новенький


З нами з: 23.02.09
Востаннє: 23.02.21
Повідомлень: 6

2020-11-20 08:37  
Masanchick
Вупс, дякую

Просто пощук по HD не дав нічого )))

Masanchick 
VIP


З нами з: 08.04.11
Востаннє: 27.02.21
Повідомлень: 1177

2020-11-20 16:44  
CVI
Будь ласка, та їх просто в розділі sd короткометражок розмістили

Ваш часовий пояс: GMT + 2 Години

Нова тема   Відповісти