Любов, смерть та роботи (Сезон 1) / Love, Death & Robots (Season 1) (2019) 1080p H.265 Ukr/Eng | Sub Ukr/Eng

Нові коментарі

Нова тема   Відповісти
Автор Повідомлення
Anonymous 







2019-07-31 11:20  
Любов, смерть та роботи (Сезон 1) / Love, Death & Robots (Season 1) (2019) 1080p H.265 Ukr/Eng | Sub Ukr/Eng

Любов, смерть та роботи (Сезон 1) / Love, Death & Robots (Season 1) (2019) 1080p H.265 Ukr/Eng | Sub Ukr/Eng


Жанр: анімація, жахи, фантастика, фентезі, комедія, бойовик, кримінал
Країна: США
Кінокомпанія: Blur Studio, NetFlix
Режисер: Віктор Малдонадо, Альфредо Торрес, Тім Міллер
Актори: Скотт Вайт, Нолан Норс, Метью Янг Кінг, Джош Бренер, Еллі Кондрон та інші

Сюжет:
Netflix здивує вас пропонуючи вам серію короткометрівок в якій поєднуються одразу кілька жанрів: фентезі, жахи, наукова фантастика, комедія. Кожна серія - це окрема історія зі своїм неповторним сюжетом. Тут можна побачити теми расизму, проблеми війни, особистих відносин, боротьби за свободу і незалежність, і багато іншого. У замальовках беруть участь найнеймовірніші персонажі. Це і роботи-мисливці за головами, інопланетні почвари, демони, перевертні, і навіть розумні продукти харчування.

Тривалість: 1 серія: ~15:00 (цілком серій: 18)
Перелік серій
01. Sonnie's Edge / Край Соні
02. Three Robots / Три Роботи
03. The Witness / Свідок
04. Suits / Форс-мажор
05. Sucker of Souls / Висмоктувач душ
06. When the Yogurt Took Over / Коли до влади прийшов Йогурт
07. Beyond the Aquila Rift / За розломом Акіла
08. Good Hunting / Славне полювання
09. The Dump / Звалище
10. Shape-Shifters / Перевертні
11. Helping Hand / Рука допомоги
12. Fish Night / Рибна ніч
13. Lucky 13 / Щасливчик 13
14. Zima Blue / Зима Блакить
15. Blind Spot / Сліпа зона
16. Ice Age / Льодовиковий період
17. Alternate Histories / Альтернативні історії
18. The Secret War / Секретна війна
Якість:
Відео:
кодек: H.265 (HEVC)
розмір кадру: 1920 x 960
бітрейт: 6 404 кб/с
бітова глибина: 10 біт
Увага! Перед завантаженням переконайтесь, що ваш пристрій відтворення (та/або ПЗ) підтримує H.265 (HEVC)

Аудіо # 1:
мова: українська
переклад: багатоголосий закадровий | Озвучка AdrianZP
кодек: AC-3 5.1
бітрейт: 448 кб/с

Аудіо # 2:
мова: англійська
переклад: оригінал
кодек: AC-3 5.1
бітрейт: 384 кб/с

Субтитри # 1: (1-6 Епізоди)
мова: українська (Full (Strugachka)),
тип: програмні (м'які)
формат: *.srt

Субтитри # 2: (1-11 епізоди)
мова: українська (Full (SubAutumn)),
тип: програмні (м'які)
формат: *.srt

Субтитри # 3:
мова: англійська (SDH),
тип: програмні (м'які)
формат: *.srt


Info
Код:
General
Unique ID                                : 67632737961032769221550416890720130338 (0x32E1976E3F8D7E77DDC3855179B39522)
Complete name                            : 01. Love, Death & Robots (2019) - S01E01 - Sonnie's Edge - 1080p H.265 [UKR_ENG] [Hurtom].
Format                                   :
Format version                           : Version 4 / Version 2
File size                                : 893 MiB
Duration                                 : 17 min 14 s
Overall bit rate                         : 7 245 kb/s
Movie name                               : Love, Death & Robots (2019) - S01E01 - Sonnie's Edge
Encoded date                             : UTC 2019-07-31 07:50:44
Writing application                      : v20.0.0 ('I Am The Sun') 64-bit
Writing library                          : libebml v1.3.5 + v1.4.8
Cover                                    : Yes
Attachments                              : Cover.jpg

Video
ID                                       : 1
Format                                   : HEVC
Format/Info                              : High Efficiency Video Coding
Format profile                           : Main [email protected]@High
Codec ID                                 : V_MPEGH/ISO/HEVC
Duration                                 : 17 min 14 s
Bit rate                                 : 6 403 kb/s
Width                                    : 1 920 pixels
Height                                   : 960 pixels
Display aspect ratio                     : 2.000
Frame rate mode                          : Constant
Frame rate                               : 24.000 FPS
Color space                              : YUV
Chroma subsampling                       : 4:2:0
Bit depth                                : 10 bits
Bits/(Pixel*Frame)                       : 0.145
Stream size                              : 790 MiB (88%)
Title                                    : Love, Death & Robots (2019) - S01E01 - Sonnie's Edge
Writing library                          : x265 3.0_Au+18-768ab38fd5fd:[Windows][clang 8.0.0][64 bit] 10bit
Encoding settings                        : cpuid=1111039 / frame-threads=9 / numa-pools=8 / wpp / no-pmode / no-pme / no-psnr / no-ssim / log-level=3 / input-csp=1 / input-res=1920x960 / interlace=0 / total-frames=0 / level-idc=51 / high-tier=1 / uhd-bd=0 / ref=5 / allow-non-conformance / no-repeat-headers / annexb / no-aud / no-hrd / info / hash=0 / no-temporal-layers / open-gop / min-keyint=23 / keyint=250 / gop-lookahead=0 / bframes=8 / b-adapt=2 / b-pyramid / bframe-bias=0 / rc-lookahead=40 / lookahead-slices=6 / scenecut=40 / radl=0 / no-splice / no-intra-refresh / ctu=64 / min-cu-size=8 / rect / amp / max-tu-size=32 / tu-inter-depth=4 / tu-intra-depth=4 / limit-tu=0 / rdoq-level=2 / dynamic-rd=0.00 / no-ssim-rd / signhide / no-tskip / nr-intra=0 / nr-inter=0 / no-constrained-intra / no-strong-intra-smoothing / max-merge=2 / limit-refs=3 / no-limit-modes / me=3 / subme=7 / merange=57 / temporal-mvp / weightp / weightb / no-analyze-src-pics / deblock=-3:-3 / no-sao / no-sao-non-deblock / rd=6 / no-early-skip / rskip / no-fast-intra / no-tskip-fast / no-cu-lossless / no-b-intra / no-splitrd-skip / rdpenalty=0 / psy-rd=2.00 / psy-rdoq=1.00 / no-rd-refine / no-lossless / cbqpoffs=0 / crqpoffs=0 / rc=crf / crf=18.0 / qcomp=0.65 / qpstep=1 / stats-write=0 / stats-read=0 / vbv-maxrate=50000 / vbv-bufsize=50000 / vbv-init=0.9 / crf-max=30.0 / crf-min=0.0 / ipratio=1.40 / pbratio=1.30 / aq-mode=1 / aq-strength=1.00 / cutree / zone-count=0 / no-strict-cbr / qg-size=32 / no-rc-grain / qpmax=69 / qpmin=0 / no-const-vbv / sar=1 / overscan=0 / videoformat=5 / range=0 / colorprim=2 / transfer=2 / colormatrix=2 / chromaloc=0 / display-window=0 / max-cll=0,0 / min-luma=0 / max-luma=1023 / log2-max-poc-lsb=8 / vui-timing-info / vui-hrd-info / slices=1 / no-opt-qp-pps / no-opt-ref-list-length-pps / no-multi-pass-opt-rps / scenecut-bias=0.05 / no-opt-cu-delta-qp / no-aq-motion / no-hdr / no-hdr-opt / no-dhdr10-opt / no-idr-recovery-sei / analysis-reuse-level=5 / scale-factor=0 / refine-intra=0 / refine-inter=0 / refine-mv=0 / refine-ctu-distortion=0 / no-limit-sao / ctu-info=0 / no-lowpass-dct / refine-analysis-type=536900864 / copy-pic=1 / max-ausize-factor=1.0 / no-dynamic-refine / no-single-sei / no-hevc-aq / no-svt / qp-adaptation-range=1.00
Default                                  : Yes
Forced                                   : No
Color range                              : Limited

Audio #1
ID                                       : 2
Format                                   : AC-3
Format/Info                              : Audio Coding 3
Codec ID                                 : A_AC3
Duration                                 : 17 min 14 s
Bit rate mode                            : Constant
Bit rate                                 : 448 kb/s
Channel(s)                               : 6 channels
Channel positions                        : Front: L C R, Side: L R, LFE
Sampling rate                            : 48.0 kHz
Frame rate                               : 31.250 FPS (1536 SPF)
Bit depth                                : 16 bits
Compression mode                         : Lossy
Stream size                              : 55.2 MiB (6%)
Title                                    : БЗ - Озвучка AdrianZP
Language                                 : Ukrainian
Service kind                             : Complete Main
Default                                  : Yes
Forced                                   : Yes

Audio #2
ID                                       : 3
Format                                   : AC-3
Format/Info                              : Audio Coding 3
Codec ID                                 : A_AC3
Duration                                 : 16 min 49 s
Bit rate mode                            : Constant
Bit rate                                 : 384 kb/s
Channel(s)                               : 6 channels
Channel positions                        : Front: L C R, Side: L R, LFE
Sampling rate                            : 48.0 kHz
Frame rate                               : 31.250 FPS (1536 SPF)
Bit depth                                : 16 bits
Compression mode                         : Lossy
Stream size                              : 46.2 MiB (5%)
Title                                    : Original
Language                                 : English
Service kind                             : Complete Main
Default                                  : No
Forced                                   : No

Text #1
ID                                       : 4
Format                                   : UTF-8
Codec ID                                 : S_TEXT/UTF8
Codec ID/Info                            : UTF-8 Plain Text
Duration                                 : 14 min 5 s
Bit rate                                 : 64 b/s
Count of elements                        : 156
Stream size                              : 6.61 KiB (0%)
Title                                    : Full (Strugachka)
Language                                 : Ukrainian
Default                                  : Yes
Forced                                   : No

Text #2
ID                                       : 5
Format                                   : UTF-8
Codec ID                                 : S_TEXT/UTF8
Codec ID/Info                            : UTF-8 Plain Text
Duration                                 : 15 min 27 s
Bit rate                                 : 65 b/s
Count of elements                        : 156
Stream size                              : 7.46 KiB (0%)
Title                                    : Full (SubAutumn)
Language                                 : Ukrainian
Default                                  : No
Forced                                   : No

Text #3
ID                                       : 6
Format                                   : UTF-8
Codec ID                                 : S_TEXT/UTF8
Codec ID/Info                            : UTF-8 Plain Text
Duration                                 : 14 min 52 s
Bit rate                                 : 50 b/s
Count of elements                        : 206
Stream size                              : 5.52 KiB (0%)
Title                                    : SDH
Language                                 : English
Default                                  : No
Forced                                   : No
Світлини

Джерело: &
Особиста оцінка: 10 - без зайвих вагань рекомендую всім!


Авторський реліз (завантажувати можна без реєстрації)
 Трекер:    Зареєстрований   

Завантажити / скачати серіал українською



відео для новачків



 Зареєстрований:   2019-07-31 11:20
 Розмір:   10.18 GB 
 Оцінка серіалу:   8.7/10 (Голосів: 7)
   
HELLOHAOS 
Свій


З нами з: 13.02.09
Востаннє: 23.08.19
Повідомлень: 67

2019-07-31 11:37  
Дивився в оригіналі - вони крутезні.
Доречі буде і другий сезон.
Всеодно дякую за переклад!

strugachka 
VIP


З нами з: 09.09.13
Востаннє: 23.08.19
Повідомлень: 339

2019-07-31 11:54  
Ми не проти коли хтось використовує наші постери, але підтирати з них наше лого вже є неправильно. Будь ласка замініть на оригінальний постер https://posters.hurtom.com/series/lyubov-smert-ta-roboti.jpg.html
або використовуйте якийсь інший.

Anonymous 







2019-07-31 12:20  
strugachka
Я Вам вдячний за українізацію постера, але ми в інтернеті, де слово "неправильно" обезцінилось. Мені більше подобається, коли постер вільний від всякої реклами, тому я залишу його очищеним.

Ваш часовий пояс: GMT + 2 Години

Нова тема   Відповісти