Війна химер (2017) 1080p

Нові коментарі

Нова тема   Відповісти
Автор Повідомлення
sergiyko.5 
VIP


З нами з: 25.02.16
Востаннє: 24.02.20
Повідомлень: 2953

2019-07-30 07:31  
Війна химер (2017) 1080p

Війна химер (2017) 1080p

Жанр: документальний, військовий, воєнний
Країна: Україна



Телеканал / кіностудія: МашКіно
Режисер: Анастасія Старожицька, Марія Старожицька

Сюжет:
У центрі сюжету стрічки — історія подорожі бійця на позивний «Лавр», Валерія Лавренова, котрий вижив, та його дівчини Анастасії, режисерки фільму, до лінії фронту і спроби спільного життя після всього побаченого і пережитого. Він був добровольцем на фронті, вона приїхала туди одразу після битви. Він потрапив в Іловайський котел, втратив найближчих побратимів, вона, подорожуючи розбитими містами, намагається зрозуміти сутність війни та кохання. І обоє відверто розповідають один одному, що відчувають під час військових дій, виходу з котла, спроби жити разом і нової, вже спільної подорожі на передову.


Тривалість: 01:33:55
Якість:

Відео: кодек: розмір кадру: 1920 х 1080 бітрейт: 5000 кб/с
Аудіо: мова: українська, російська переклад: оригінал кодек: 2.0 бітрейт: 256 кб/с
Субтитри: мова: англійська тип: вбудовані (жорсткі)
Про файл:
General
Complete name : E:\content\films\Війна химер.Docu Space.2017.1080p..mp4
Format : MPEG-4
Format profile : Base Media / Version 2
Codec ID : mp42 (mp42/mp41/isom/avc1)
File size : 3.45 GiB
Duration : 1 h 33 min
Overall bit rate mode : Variable
Overall bit rate : 5 253 kb/s
Encoded date : UTC 2019-07-11 09:06:46
Tagged date : UTC 2019-07-11 09:06:46

Video
ID : 1
Format : AVC
Format/Info : Advanced Video Codec
Format profile : [email protected]
Format settings : CABAC / 5 Ref Frames
Format settings, CABAC : Yes
Format settings, Reference : 5 frames
Codec ID : avc1
Codec ID/Info : Advanced Video Coding
Duration : 1 h 33 min
Bit rate : 4 996 kb/s
Width : 1 920 pixels
Height : 1 080 pixels
Display aspect ratio : 16:9
Frame rate mode : Constant
Frame rate : 25.000 FPS
Color space : YUV
Chroma subsampling : 4:2:0
Bit depth : 8 bits
Scan type : Progressive
Bits/(Pixel*Frame) : 0.096
Stream size : 3.28 GiB (95%)
Writing library : core 157 r10 d4099dd
Encoding settings : cabac=1 / ref=5 / deblock=1:0:0 / analyse=0x3:0x113 / me=hex / subme=8 / psy=1 / psy_rd=1.00:0.00 / mixed_ref=1 / me_range=16 / chroma_me=1 / trellis=2 / 8x8dct=1 / cqm=0 / deadzone=21,11 / fast_pskip=1 / chroma_qp_offset=-2 / threads=34 / lookahead_threads=5 / sliced_threads=0 / nr=0 / decimate=1 / interlaced=0 / bluray_compat=0 / stitchable=1 / constrained_intra=0 / bframes=3 / b_pyramid=2 / b_adapt=2 / b_bias=0 / direct=3 / weightb=1 / open_gop=0 / weightp=2 / keyint=infinite / keyint_min=25 / scenecut=40 / intra_refresh=0 / rc_lookahead=50 / rc=crf / mbtree=1 / crf=20.0 / qcomp=0.60 / qpmin=5 / qpmax=69 / qpstep=4 / vbv_maxrate=5500 / vbv_bufsize=15000 / crf_max=0.0 / nal_hrd=none / filler=0 / ip_ratio=1.40 / aq=1:1.00
Encoded date : UTC 2019-07-11 09:06:46
Tagged date : UTC 2019-07-11 09:06:46
Color range : Limited
Color primaries : BT.709
Transfer characteristics : BT.709
Matrix coefficients : BT.709
Codec configuration box : avcC

Audio
ID : 2
Format : LC
Format/Info : Advanced Audio Codec Low Complexity
Codec ID : mp4a-40-2
Duration : 1 h 33 min
Bit rate mode : Variable
Bit rate : 253 kb/s
Channel(s) : 2 channels
Channel layout : L R
Sampling rate : 48.0 kHz
Frame rate : 46.875 FPS (1024 SPF)
Compression mode : Lossy
Stream size : 170 MiB (5%)
Encoded date : UTC 2019-07-11 09:06:46
Tagged date : UTC 2019-07-11 09:06:46
Скріншоти:


Золотий реліз (завантажене не впливає на рейтинг)
 Трекер:    Зареєстрований   

Завантажити / скачати фільм українською



відео для новачків



 Зареєстрований:   2019-07-30 07:31
 Розмір:   3.45 GB 
 Оцінка фільму:   10/10 (Голосів: 21)
   
sanduanton 
Новенький


З нами з: 27.06.19
Востаннє: 28.01.20
Повідомлень: 4

2019-07-31 11:40  
Thanks so much for this documentary. I have waited for so long!
igor911 
Модератор відео


З нами з: 18.01.08
Востаннє: 24.02.20
Повідомлень: 14130

2019-07-31 21:01  
sanduanton, на нашому сайті спілкуються виключно українською мовою.
Цитата:
2. Правила та обмеження форуму

Всім без винятку заборонено:
2.1 Спілкуватися іншою мовою, аніж літературною українською; використовувати для написання українських слів іншу абетку, аніж кирилицю

600dvin 
Новенький


З нами з: 11.11.13
Востаннє: 31.12.19
Повідомлень: 2

2019-12-31 21:01  
Оооо, дякую, давно чекав!
Ваш часовий пояс: GMT + 2 Години

Нова тема   Відповісти