Статус: Update / Status Update (2018) AVC Ukr/Eng | Sub Eng

Нові коментарі

Нова тема   Відповісти
Автор Повідомлення
FaB0SS 
Відео Гуртом - фільмокрай
Відео Гуртом - фільмокрай


З нами з: 04.08.08
Востаннє: 18.10.19
Повідомлень: 543

2019-07-29 23:18  
Статус: Update / Status Update (2018) AVC Ukr/Eng | Sub Eng

Статус: Update / Status Update (2018) AVC Ukr/Eng | Sub Eng


Жанр: комедія, фантастика
Країна: США, Канада, Китай



Кінокомпанія: Offspring Entertainment, Brightlight Pictures, DNA Pictures, Heyi Capital
Режисер: Скотт Спір
Актори: Росс Лінч, Олівія Голт, Кортні Ітон, Маркіян Тарасюк, Ґреґґ Салкін, Харві Гільєн, Ніколас Лі, Фамке Янссен, Джон Майкл Хіггінс, Венді МакЛендон-Кові та інщі

Сюжет:
Старшокласник Кайл щойно перевівся до нової школи. Лише місцевий невдаха прийняв його з розкритими обіймами. Більш успішні хлопці при першій же зустрічі розбили його телефон. Дивакуватий незнайомець із телефонного сервісу встановив на новий гаджет Кайла якийсь додаток. Тепер будь-яке вигадане повідомлення, опубліковане Кайлом, одразу стає реальністю.


Тривалість: 01:46:49
Якість: AVC
Відео:
кодек:
розмір кадру: 1024 x 428
бітрейт: 1819 кб/с

Аудіо # 1:
мова: українська
переклад: професійний дубльований | студія ААА-sound
кодек: 5.1
бітрейт: 448 кб/с
Інформація про дубляж
Переклад: Юлія Когут
Режисер дубляжу та звукорежисер перезапису: Олександр Єфімов
Ролі дублювали: Павло Скороходько, Антоніна Якушева, Андрій Федінчик, Юлія Перенчук, Михайло Кришталь, Юрій Ребрик, Дмитро Завадський, Катерина Буцька, Андрій Альохін, Наталя Денисенко, Євген Пашин, Катерина Брайковська, Дмитро Гаврилов, Олена Узлюк, Олександр Погребняк, Ліза Зіновенко та інші.

Фільм дубльовано студією ААА-sound на замовлення компанії "Вольга Україна".
Аудіо # 2:
мова: англійська
переклад: оригінал
кодек: 5.1
бітрейт: 448 кб/с

Субтитри:
мова: англійська
тип: програмні (м'які)
формат: *.srt
Info
General
Unique ID : 171403492541844413120421742208892341255 (0x80F31CA48DBB2C153B96BF82A6D10C07)
Complete name : Status Update (2018) AVC [UKR_ENG] [Hurtom].
Format :
Format version : Version 4
File size : 2.03 GiB
Duration : 1 h 46 min
Overall bit rate : 2 716 kb/s
Movie name : Статус Update / Status Update (2018)
Encoded date : UTC 2019-07-29 20:13:04
Writing application : v25.0.0 ('Prog Noir') 64-bit
Writing library : libebml v1.3.6 + v1.4.9
Attachments : posterab9bff1e0dc7d0f8.jpg

Video
ID : 1
Format : AVC
Format/Info : Advanced Video Codec
Format profile : [email protected]
Format settings : CABAC / 10 Ref Frames
Format settings, CABAC : Yes
Format settings, Reference : 10 frames
Codec ID : V_MPEG4/ISO/AVC
Duration : 1 h 46 min
Bit rate : 1 819 kb/s
Width : 1 024 pixels
Height : 428 pixels
Display aspect ratio : 2.40:1
Frame rate mode : Constant
Frame rate : 23.976 (24000/1001) FPS
Color space : YUV
Chroma subsampling : 4:2:0
Bit depth : 8 bits
Scan type : Progressive
Bits/(Pixel*Frame) : 0.173
Stream size : 1.36 GiB (67%)
Writing library : core 146 r2538 121396c
Encoding settings : cabac=1 / ref=10 / deblock=1:-3:-3 / analyse=0x3:0x113 / me=umh / subme=11 / psy=1 / psy_rd=0.97:0.05 / mixed_ref=1 / me_range=48 / chroma_me=1 / trellis=2 / 8x8dct=1 / cqm=0 / deadzone=21,11 / fast_pskip=1 / chroma_qp_offset=-3 / threads=6 / lookahead_threads=1 / sliced_threads=0 / nr=0 / decimate=1 / interlaced=0 / bluray_compat=0 / constrained_intra=0 / bframes=11 / b_pyramid=2 / b_adapt=2 / b_bias=0 / direct=3 / weightb=1 / open_gop=0 / weightp=2 / keyint=240 / keyint_min=23 / scenecut=40 / intra_refresh=0 / rc_lookahead=40 / rc=2pass / mbtree=0 / bitrate=1819 / ratetol=1.0 / qcomp=0.60 / qpmin=0 / qpmax=69 / qpstep=4 / cplxblur=20.0 / qblur=0.5 / vbv_maxrate=50000 / vbv_bufsize=62500 / nal_hrd=none / filler=0 / ip_ratio=1.40 / pb_ratio=1.30 / aq=1:1.00
Language : English
Default : Yes
Forced : No

Audio #1
ID : 2
Format : AC-3
Format/Info : Audio Coding 3
Commercial name : Dolby Digital
Codec ID : A_AC3
Duration : 1 h 46 min
Bit rate mode : Constant
Bit rate : 448 kb/s
Channel(s) : 6 channels
Channel layout : L R C LFE Ls Rs
Sampling rate : 48.0 kHz
Frame rate : 31.250 FPS (1536 SPF)
Bit depth : 16 bits
Compression mode : Lossy
Stream size : 342 MiB (16%)
Title : Dub [AAASound]
Language : Ukrainian
Service kind : Complete Main
Default : Yes
Forced : No

Audio #2
ID : 3
Format : AC-3
Format/Info : Audio Coding 3
Commercial name : Dolby Digital
Codec ID : A_AC3
Duration : 1 h 46 min
Bit rate mode : Constant
Bit rate : 448 kb/s
Channel(s) : 6 channels
Channel layout : L R C LFE Ls Rs
Sampling rate : 48.0 kHz
Frame rate : 31.250 FPS (1536 SPF)
Bit depth : 16 bits
Compression mode : Lossy
Stream size : 342 MiB (16%)
Title : [Original]
Language : English
Service kind : Complete Main
Default : No
Forced : No

Text #1
ID : 4
Format : UTF-8
Codec ID : S_TEXT/UTF8
Codec ID/Info : UTF-8 Plain Text
Duration : 1 h 42 min
Bit rate : 73 b/s
Count of elements : 1567
Stream size : 55.2 KiB (0%)
Title : Full
Language : English
Default : No
Forced : No

Text #2
ID : 5
Format : UTF-8
Codec ID : S_TEXT/UTF8
Codec ID/Info : UTF-8 Plain Text
Duration : 1 h 42 min
Bit rate : 78 b/s
Count of elements : 1683
Stream size : 58.7 KiB (0%)
Title : SDH
Language : English
Default : No
Forced : No

Menu
00:00:00.000 : en:00:00:00.000
00:10:24.541 : en:00:10:24.541
00:15:51.784 : en:00:15:51.784
00:25:04.211 : en:00:25:04.211
00:31:46.947 : en:00:31:46.947
00:41:15.431 : en:00:41:15.431
00:51:18.450 : en:00:51:18.450
01:00:46.101 : en:01:00:46.101
01:07:21.037 : en:01:07:21.037
01:16:25.206 : en:01:16:25.206
01:24:47.416 : en:01:24:47.416
01:32:11.943 : en:01:32:11.943
Скріншоти



Джерело:
Особиста оцінка: 6 - Загалом цікаве, дивитись можна, але є тупі моменти, не для мене.


 Трекер:    Зареєстрований   

Завантажити / скачати фільм українською



відео для новачків



 Зареєстрований:   2019-07-29 23:18
 Розмір:   2.03 GB 
 Оцінка фільму:   6.3/10 (Голосів: 6)
   
Інші релізи
   Статус: Update / Status Update (2018) Remux 1080p Ukr/Eng | Sub Eng staf777  2 / 0   15.67 GB   2018-11-24 01:28 
   Статус: Update / Status Update (2018) 1080p Ukr/Eng | Sub Eng staf777  0 / 0   7.61 GB   2018-11-23 23:51 
   Статус: Update / Status Update (2018) 720р Ukr/Eng | Sub Eng 11FrYkT  3 / 0   3.72 GB   2018-11-23 23:33 
   Статус: Update / Status Update (2018) Ukr/Eng uafilm.tv  2 / 0   1.37 GB   2018-07-04 22:52 
Vovoos 
Частий відвідувач


З нами з: 09.06.12
Востаннє: 18.10.19
Повідомлень: 29

2019-07-30 12:42  
До такого "шедеврального" фільму українська звукова доріжка 5.1, а до всіх крутих фантастик, екшинів та бойовиків - нікчемний 2.0!!!
Де справедливість???

FaB0SS 
Відео Гуртом - фільмокрай
Відео Гуртом - фільмокрай


З нами з: 04.08.08
Востаннє: 18.10.19
Повідомлень: 543

2019-07-30 15:05  
Vovoos
Маємо те, що маємо. Може колись і до тих фільмів з'являться 5.1.

Ваш часовий пояс: GMT + 2 Години

Нова тема   Відповісти