Нікчемний Я / Despicable Me (2010) 1080p H.265 2xUkr/Eng | Sub Ukr/Eng

Нові коментарі

Нова тема   Відповісти
Автор Повідомлення
Anonymous 







2019-07-29 21:50  
Нікчемний Я / Despicable Me (2010) 1080p H.265 2xUkr/Eng | Sub Ukr/Eng

Нікчемний Я / Despicable Me (2010) 1080p H.265 2xUkr/Eng | Sub Ukr/Eng


Жанр: анімація, комедія, пригодницький
Країна: США
Кінокомпанія: Illumination Entertainment, Universal Pictures International
Режисер: П'єр Соффін, Кріс Рено, Серджо Паблос
Актори: Рассел Бренд, Джейсон Сегел, Кен Жонг, Уілл Арнетт, Денні МакБрайд, Джулі Ендрюс

Сюжет:
У невеликому містечку, на вулиці, де охайні будиночки оточені білими парканчиками і кущами троянд, розташувався один величезний чорний будинок, навколо якого нічого не росте. Місцеві жителі навіть не здогадуються, але глибоко під ним знаходиться велике таємне сховище. В оточенні армії маленьких посіпак ми зустрічаємо тут Гру, який планує найбільше в історії людства викрадення. Він збирається вкрасти місяць (так-так, вам не почулося: місяць!).

Тривалість: 01:34:41
Якість:
Відео:
кодек: H.265 (HEVC)
розмір кадру: 1920 x 1040
бітрейт: 3 882 кб/с
бітова глибина: 10 біт
Увага! Перед завантаженням переконайтесь, що ваш пристрій відтворення (та/або ПЗ) підтримує H.265 (HEVC)

Аудіо # 1:
мова: українська
переклад: професійний дубльований
кодек: AC-3 5.1
бітрейт: 384 кб/с

Аудіо # 2:
мова: українська
переклад: багатоголосий закадровий
кодек: AC-3 2.0
бітрейт: 192 кб/с

Аудіо # 3:
мова: англійська
переклад: оригінал
кодек: AC-3 5.1
бітрейт: 640 кб/с

Субтитри # 1:
мова: українська (Forced),
тип: програмні (м'які)
формат: *.srt

Субтитри # 2:
мова: українська (Full),
тип: програмні (м'які)
формат: *.srt

Субтитри # 3:
мова: англійська (Full),
тип: програмні (м'які)
формат: *.srt

Субтитри # 4:
мова: англійська (SDH-Colored),
тип: програмні (м'які)
формат: *.srt


Info
Код:
General
Unique ID                                : 332257069725169450747960034795343868283 (0xF9F6624CA1B3B15B8B3E91E3AB88717B)
Complete name                            : Despicable Me (2010) 1080p H.265 [2xUKR_ENG] [Hurtom].
Format                                   :
Format version                           : Version 4 / Version 2
File size                                : 3.37 GiB
Duration                                 : 1 h 34 min
Overall bit rate                         : 5 095 kb/s
Movie name                               : Нікчемний Я / Despicable Me (2010)
Encoded date                             : UTC 2019-07-29 19:19:32
Writing application                      : v20.0.0 ('I Am The Sun') 64-bit
Writing library                          : libebml v1.3.5 + v1.4.8
Cover                                    : Yes
Attachments                              : Cover.jpg

Video
ID                                       : 1
Format                                   : HEVC
Format/Info                              : High Efficiency Video Coding
Format profile                           : Main [email protected]@High
Codec ID                                 : V_MPEGH/ISO/HEVC
Duration                                 : 1 h 34 min
Bit rate                                 : 3 882 kb/s
Width                                    : 1 920 pixels
Height                                   : 1 040 pixels
Display aspect ratio                     : 1.85:1
Frame rate mode                          : Constant
Frame rate                               : 23.976 (23976/1000) FPS
Original frame rate                      : 23.976 (24000/1001) FPS
Color space                              : YUV
Chroma subsampling                       : 4:2:0
Bit depth                                : 10 bits
Bits/(Pixel*Frame)                       : 0.081
Stream size                              : 2.57 GiB (76%)
Title                                    : Нікчемний Я / Despicable Me (2010)
Writing library                          : x265 3.0_Au+4-dcbec33bfb0f:[Windows][MSVC 1916][64 bit] 10bit
Encoding settings                        : cpuid=1111039 / frame-threads=3 / numa-pools=12 / wpp / no-pmode / no-pme / no-psnr / no-ssim / log-level=2 / input-csp=1 / input-res=1920x1040 / interlace=0 / total-frames=136223 / level-idc=41 / high-tier=1 / uhd-bd=0 / ref=5 / no-allow-non-conformance / no-repeat-headers / annexb / no-aud / no-hrd / info / hash=0 / no-temporal-layers / open-gop / min-keyint=23 / keyint=240 / gop-lookahead=0 / bframes=16 / b-adapt=2 / b-pyramid / bframe-bias=0 / rc-lookahead=60 / lookahead-slices=4 / scenecut=40 / radl=0 / no-splice / no-intra-refresh / ctu=32 / min-cu-size=8 / rect / amp / max-tu-size=32 / tu-inter-depth=4 / tu-intra-depth=4 / limit-tu=1 / rdoq-level=2 / dynamic-rd=0.00 / no-ssim-rd / signhide / no-tskip / nr-intra=0 / nr-inter=0 / no-constrained-intra / no-strong-intra-smoothing / max-merge=4 / limit-refs=2 / limit-modes / me=3 / subme=7 / merange=57 / temporal-mvp / weightp / weightb / no-analyze-src-pics / deblock=-3:-3 / no-sao / no-sao-non-deblock / rd=6 / no-early-skip / no-rskip / no-fast-intra / no-tskip-fast / no-cu-lossless / no-b-intra / no-splitrd-skip / rdpenalty=0 / psy-rd=2.00 / psy-rdoq=1.00 / no-rd-refine / no-lossless / cbqpoffs=0 / crqpoffs=0 / rc=crf / crf=20.0 / qcomp=0.60 / qpstep=4 / stats-write=0 / stats-read=0 / vbv-maxrate=50000 / vbv-bufsize=50000 / vbv-init=0.9 / crf-max=0.0 / crf-min=0.0 / ipratio=1.40 / pbratio=1.30 / aq-mode=1 / aq-strength=0.90 / no-cutree / zone-count=0 / no-strict-cbr / qg-size=32 / no-rc-grain / qpmax=69 / qpmin=0 / no-const-vbv / sar=1 / overscan=0 / videoformat=5 / range=0 / colorprim=2 / transfer=2 / colormatrix=2 / chromaloc=0 / display-window=0 / max-cll=0,0 / min-luma=0 / max-luma=1023 / log2-max-poc-lsb=8 / vui-timing-info / vui-hrd-info / slices=1 / no-opt-qp-pps / no-opt-ref-list-length-pps / no-multi-pass-opt-rps / scenecut-bias=0.05 / no-opt-cu-delta-qp / no-aq-motion / no-hdr / no-hdr-opt / no-dhdr10-opt / no-idr-recovery-sei / analysis-reuse-level=5 / scale-factor=0 / refine-intra=0 / refine-inter=0 / refine-mv=0 / refine-ctu-distortion=0 / no-limit-sao / ctu-info=0 / no-lowpass-dct / refine-analysis-type=0 / copy-pic=1 / max-ausize-factor=1.0 / no-dynamic-refine / no-single-sei / no-hevc-aq / qp-adaptation-range=1.00
Default                                  : Yes
Forced                                   : No

Audio #1
ID                                       : 2
Format                                   : AC-3
Format/Info                              : Audio Coding 3
Codec ID                                 : A_AC3
Duration                                 : 1 h 34 min
Bit rate mode                            : Constant
Bit rate                                 : 384 kb/s
Channel(s)                               : 6 channels
Channel positions                        : Front: L C R, Side: L R, LFE
Sampling rate                            : 48.0 kHz
Frame rate                               : 31.250 FPS (1536 SPF)
Bit depth                                : 16 bits
Compression mode                         : Lossy
Stream size                              : 260 MiB (8%)
Title                                    : / 5.1 Ch / 384 kbps / ПД / DVD
Language                                 : Ukrainian
Service kind                             : Complete Main
Default                                  : Yes
Forced                                   : Yes

Audio #2
ID                                       : 3
Format                                   : AC-3
Format/Info                              : Audio Coding 3
Codec ID                                 : A_AC3
Duration                                 : 1 h 34 min
Bit rate mode                            : Constant
Bit rate                                 : 192 kb/s
Channel(s)                               : 2 channels
Channel positions                        : Front: L R
Sampling rate                            : 48.0 kHz
Frame rate                               : 31.250 FPS (1536 SPF)
Bit depth                                : 16 bits
Compression mode                         : Lossy
Stream size                              : 130 MiB (4%)
Title                                    : / 2.0 Ch / 192 kbps / БЗ / Kanal Ukraina
Language                                 : Ukrainian
Service kind                             : Complete Main
Default                                  : No
Forced                                   : No

Audio #3
ID                                       : 4
Format                                   : AC-3
Format/Info                              : Audio Coding 3
Codec ID                                 : A_AC3
Duration                                 : 1 h 34 min
Bit rate mode                            : Constant
Bit rate                                 : 640 kb/s
Channel(s)                               : 6 channels
Channel positions                        : Front: L C R, Side: L R, LFE
Sampling rate                            : 48.0 kHz
Frame rate                               : 31.250 FPS (1536 SPF)
Bit depth                                : 16 bits
Compression mode                         : Lossy
Stream size                              : 434 MiB (13%)
Title                                    : / 5.1 Ch / 640 kbps / Original
Language                                 : English
Service kind                             : Complete Main
Default                                  : No
Forced                                   : No

Text #1
ID                                       : 5
Format                                   : UTF-8
Codec ID                                 : S_TEXT/UTF8
Codec ID/Info                            : UTF-8 Plain Text
Duration                                 : 1 h 7 min
Bit rate                                 : 2 b/s
Count of elements                        : 33
Stream size                              : 1.22 KiB (0%)
Title                                    : Forced
Language                                 : Ukrainian
Default                                  : Yes
Forced                                   : Yes

Text #2
ID                                       : 6
Format                                   : UTF-8
Codec ID                                 : S_TEXT/UTF8
Codec ID/Info                            : UTF-8 Plain Text
Duration                                 : 1 h 29 min
Bit rate                                 : 66 b/s
Count of elements                        : 960
Stream size                              : 43.6 KiB (0%)
Title                                    : Full
Language                                 : Ukrainian
Default                                  : No
Forced                                   : No

Text #3
ID                                       : 7
Format                                   : UTF-8
Codec ID                                 : S_TEXT/UTF8
Codec ID/Info                            : UTF-8 Plain Text
Duration                                 : 1 h 34 min
Bit rate                                 : 46 b/s
Count of elements                        : 1226
Stream size                              : 32.0 KiB (0%)
Title                                    : Full
Language                                 : English
Default                                  : No
Forced                                   : No

Text #4
ID                                       : 8
Format                                   : UTF-8
Codec ID                                 : S_TEXT/UTF8
Codec ID/Info                            : UTF-8 Plain Text
Duration                                 : 1 h 34 min
Bit rate                                 : 61 b/s
Count of elements                        : 1226
Stream size                              : 42.2 KiB (0%)
Title                                    : SDH-Colored
Language                                 : English
Default                                  : No
Forced                                   : No

Menu
00:00:00.000                             : en:00:00:00.000
00:03:22.411                             : en:00:03:22.411
00:06:31.891                             : en:00:06:31.891
00:12:05.099                             : en:00:12:05.099
00:13:50.496                             : en:00:13:50.496
00:18:38.826                             : en:00:18:38.826
00:23:06.844                             : en:00:23:06.844
00:25:56.221                             : en:00:25:56.221
00:30:40.839                             : en:00:30:40.839
00:34:48.753                             : en:00:34:48.753
00:39:43.047                             : en:00:39:43.047
00:43:38.366                             : en:00:43:38.366
00:48:19.188                             : en:00:48:19.188
00:52:52.502                             : en:00:52:52.502
00:56:46.111                             : en:00:56:46.111
01:02:08.016                             : en:01:02:08.016
01:09:23.868                             : en:01:09:23.868
01:16:25.456                             : en:01:16:25.456
01:22:41.581                             : en:01:22:41.581
01:27:35.375                             : en:01:27:35.375
Світлини




Джерело: &
Особиста оцінка: 10 - без зайвих вагань рекомендую всім!


 Трекер:    Зареєстрований   

Завантажити / скачати мультфільм українською



відео для новачків



 Зареєстрований:   2019-07-29 21:50
 Розмір:   3.37 GB 
 Оцінка мультфільму:   9.4/10 (Голосів: 21)
   
Інші релізи
Ваш часовий пояс: GMT + 2 Години

Нова тема   Відповісти