Нікчемний Я 3 / Despicable Me 3 (2017) 1080p H.265 Ukr/Eng | Sub Eng

Нові коментарі

Нова тема   Відповісти
Автор Повідомлення
Anonymous 







2019-07-29 22:50  
Нікчемний Я 3 / Despicable Me 3 (2017) 1080p H.265 Ukr/Eng | Sub Eng

Нікчемний Я 3 / Despicable Me 3 (2017) 1080p H.265 Ukr/Eng | Sub Eng


Жанр: анімація, фантастика, бойовик, комедія, пригодницький, сімейний
Країна: США
Кінокомпанія: Universal Pictures, Illumination Entertainment
Режисер: Кайл Балда, Пьєр Соффін, Ерік Ґуільон
Актори: Стів Карелл, Крістен Віґ, Трей Паркер, Рассел Бренд, Міранда Косґров, Дена Ґаєр, Джулі Ендрюс, Стів Куґан, Дженні Слейт, Пьєр Соффін та інші

Сюжет:
У Ґру проблеми. Останню справу він не зміг виконати, тому його усунули від роботи. Поки численне сімейство залишилося без годувальника, колишній лиходій шукає якісь способи заробити грошви. Раптово у житті Ґру з'являється звісточка про те, що його в гості запрошує брат-близнюк Дрю, про якого він ніколи не чув. Той живе на власному острові в розкішному маєтку. Дрю пропонує братику хоч на одну справу повернутися у злочинний світ, щоб мати можливість утримувати сім'ю. Ґру повинен це зробити, заради своїх дівчаток. Аби брат, який ніколи не робив нічого незаконного, не зіпсував справу.

Тривалість: 01:29:40
Якість:
Відео:
кодек: H.265 (HEVC)
розмір кадру: 1920 x 804
бітрейт: 5 134 кб/с
бітова глибина: 10 біт
Увага! Перед завантаженням переконайтесь, що ваш пристрій відтворення (та/або ПЗ) підтримує H.265 (HEVC)

Аудіо # 1:
мова: українська
переклад: професійний дубльований | LeDoyen
кодек: AC-3 2.0
бітрейт: 192 кб/с

Аудіо # 2:
мова: англійська
переклад: оригінал
кодек: AC-3 5.1
бітрейт: 640 кб/с

Субтитри # 1:
мова: українська (Forced),
тип: програмні (м'які)
формат: *.srt

Субтитри # 2:
мова: англійська (Full),
тип: програмні (м'які)
формат: *.srt

Субтитри # 3:
мова: англійська (SDH),
тип: програмні (м'які)
формат: *.srt

Субтитри # 4:
мова: англійська (SDH-Colored),
тип: програмні (м'які)
формат: *.srt


Info
Код:
General
Unique ID                                : 27276573378272269835472801456572294640 (0x148546E5DD3ADD16222EC8843D9365F0)
Complete name                            : Despicable Me 3 (2017) 1080p [UKR_ENG] [Hurtom].
Format                                   :
Format version                           : Version 4 / Version 2
File size                                : 3.74 GiB
Duration                                 : 1 h 29 min
Overall bit rate                         : 5 969 kb/s
Movie name                               : Нікчемний Я 3 / Despicable Me 3 (2017)
Encoded date                             : UTC 2019-07-29 19:27:19
Writing application                      : v20.0.0 ('I Am The Sun') 64-bit
Writing library                          : libebml v1.3.5 + v1.4.8
Cover                                    : Yes
Attachments                              : cover.jpg

Video
ID                                       : 1
Format                                   : HEVC
Format/Info                              : High Efficiency Video Coding
Format profile                           : Main [email protected]@High
Codec ID                                 : V_MPEGH/ISO/HEVC
Duration                                 : 1 h 29 min
Bit rate                                 : 5 134 kb/s
Width                                    : 1 920 pixels
Height                                   : 804 pixels
Display aspect ratio                     : 2.40:1
Frame rate mode                          : Constant
Frame rate                               : 23.976 (23976/1000) FPS
Original frame rate                      : 23.976 (24000/1001) FPS
Color space                              : YUV
Chroma subsampling                       : 4:2:0
Bit depth                                : 10 bits
Bits/(Pixel*Frame)                       : 0.139
Stream size                              : 3.22 GiB (86%)
Title                                    : Нікчемний Я 3 / Despicable Me 3 (2017)
Writing library                          : x265 3.0_Au+4-dcbec33bfb0f:[Windows][MSVC 1916][64 bit] 10bit
Encoding settings                        : cpuid=1111039 / frame-threads=3 / numa-pools=12 / wpp / no-pmode / no-pme / no-psnr / no-ssim / log-level=2 / input-csp=1 / input-res=1920x804 / interlace=0 / total-frames=129000 / level-idc=41 / high-tier=1 / uhd-bd=0 / ref=5 / no-allow-non-conformance / no-repeat-headers / annexb / no-aud / no-hrd / info / hash=0 / no-temporal-layers / open-gop / min-keyint=23 / keyint=240 / gop-lookahead=0 / bframes=12 / b-adapt=2 / b-pyramid / bframe-bias=0 / rc-lookahead=60 / lookahead-slices=4 / scenecut=40 / radl=0 / no-splice / no-intra-refresh / ctu=32 / min-cu-size=8 / rect / amp / max-tu-size=32 / tu-inter-depth=4 / tu-intra-depth=4 / limit-tu=1 / rdoq-level=2 / dynamic-rd=0.00 / no-ssim-rd / signhide / no-tskip / nr-intra=0 / nr-inter=0 / no-constrained-intra / no-strong-intra-smoothing / max-merge=4 / limit-refs=2 / limit-modes / me=3 / subme=7 / merange=57 / temporal-mvp / weightp / weightb / no-analyze-src-pics / deblock=-3:-3 / no-sao / no-sao-non-deblock / rd=6 / no-early-skip / no-rskip / no-fast-intra / no-tskip-fast / no-cu-lossless / no-b-intra / no-splitrd-skip / rdpenalty=0 / psy-rd=2.00 / psy-rdoq=1.00 / no-rd-refine / no-lossless / cbqpoffs=0 / crqpoffs=0 / rc=crf / crf=20.0 / qcomp=0.60 / qpstep=4 / stats-write=0 / stats-read=0 / vbv-maxrate=50000 / vbv-bufsize=50000 / vbv-init=0.9 / crf-max=0.0 / crf-min=0.0 / ipratio=1.40 / pbratio=1.30 / aq-mode=1 / aq-strength=0.90 / no-cutree / zone-count=0 / no-strict-cbr / qg-size=32 / no-rc-grain / qpmax=69 / qpmin=0 / no-const-vbv / sar=1 / overscan=0 / videoformat=5 / range=0 / colorprim=2 / transfer=2 / colormatrix=2 / chromaloc=0 / display-window=0 / max-cll=0,0 / min-luma=0 / max-luma=1023 / log2-max-poc-lsb=8 / vui-timing-info / vui-hrd-info / slices=1 / no-opt-qp-pps / no-opt-ref-list-length-pps / no-multi-pass-opt-rps / scenecut-bias=0.05 / no-opt-cu-delta-qp / no-aq-motion / no-hdr / no-hdr-opt / no-dhdr10-opt / no-idr-recovery-sei / analysis-reuse-level=5 / scale-factor=0 / refine-intra=0 / refine-inter=0 / refine-mv=0 / refine-ctu-distortion=0 / no-limit-sao / ctu-info=0 / no-lowpass-dct / refine-analysis-type=0 / copy-pic=1 / max-ausize-factor=1.0 / no-dynamic-refine / no-single-sei / no-hevc-aq / qp-adaptation-range=1.00
Default                                  : Yes
Forced                                   : No

Audio #1
ID                                       : 2
Format                                   : AC-3
Format/Info                              : Audio Coding 3
Codec ID                                 : A_AC3
Duration                                 : 1 h 29 min
Bit rate mode                            : Constant
Bit rate                                 : 192 kb/s
Channel(s)                               : 2 channels
Channel positions                        : Front: L R
Sampling rate                            : 48.0 kHz
Frame rate                               : 31.250 FPS (1536 SPF)
Bit depth                                : 16 bits
Compression mode                         : Lossy
Stream size                              : 123 MiB (3%)
Title                                    : / 2.0 Ch / 192 kbps / ПД / LeDoyen
Language                                 : Ukrainian
Service kind                             : Complete Main
Default                                  : Yes
Forced                                   : Yes

Audio #2
ID                                       : 3
Format                                   : AC-3
Format/Info                              : Audio Coding 3
Codec ID                                 : A_AC3
Duration                                 : 1 h 29 min
Bit rate mode                            : Constant
Bit rate                                 : 640 kb/s
Channel(s)                               : 6 channels
Channel positions                        : Front: L C R, Side: L R, LFE
Sampling rate                            : 48.0 kHz
Frame rate                               : 31.250 FPS (1536 SPF)
Bit depth                                : 16 bits
Compression mode                         : Lossy
Stream size                              : 410 MiB (11%)
Title                                    : / 5.1 Ch / 640 kbps / Original
Language                                 : English
Service kind                             : Complete Main
Default                                  : No
Forced                                   : No

Text #1
ID                                       : 4
Format                                   : UTF-8
Codec ID                                 : S_TEXT/UTF8
Codec ID/Info                            : UTF-8 Plain Text
Duration                                 : 1 h 10 min
Bit rate                                 : 1 b/s
Count of elements                        : 27
Stream size                              : 828 Bytes (0%)
Title                                    : Forced
Language                                 : Ukrainian
Default                                  : Yes
Forced                                   : Yes

Text #2
ID                                       : 5
Format                                   : UTF-8
Codec ID                                 : S_TEXT/UTF8
Codec ID/Info                            : UTF-8 Plain Text
Duration                                 : 1 h 21 min
Bit rate                                 : 50 b/s
Count of elements                        : 1152
Stream size                              : 30.2 KiB (0%)
Title                                    : Full
Language                                 : English
Default                                  : No
Forced                                   : No

Text #3
ID                                       : 6
Format                                   : UTF-8
Codec ID                                 : S_TEXT/UTF8
Codec ID/Info                            : UTF-8 Plain Text
Duration                                 : 1 h 21 min
Bit rate                                 : 65 b/s
Count of elements                        : 1527
Stream size                              : 39.2 KiB (0%)
Title                                    : SDH
Language                                 : English
Default                                  : No
Forced                                   : No

Text #4
ID                                       : 7
Format                                   : UTF-8
Codec ID                                 : S_TEXT/UTF8
Codec ID/Info                            : UTF-8 Plain Text
Duration                                 : 1 h 21 min
Bit rate                                 : 108 b/s
Count of elements                        : 1527
Stream size                              : 64.7 KiB (0%)
Title                                    : SDH-Colored
Language                                 : English
Default                                  : No
Forced                                   : No

Menu
00:00:00.000                             : en:00:00:00.000
00:03:06.103                             : en:00:03:06.103
00:07:57.977                             : en:00:07:57.977
00:11:12.839                             : en:00:11:12.839
00:16:15.766                             : en:00:16:15.766
00:20:07.498                             : en:00:20:07.498
00:24:07.988                             : en:00:24:07.988
00:28:57.069                             : en:00:28:57.069
00:32:55.348                             : en:00:32:55.348
00:39:01.839                             : en:00:39:01.839
00:42:44.187                             : en:00:42:44.187
00:46:47.179                             : en:00:46:47.179
00:50:55.636                             : en:00:50:55.636
00:56:12.077                             : en:00:56:12.077
01:00:02.265                             : en:01:00:02.265
01:05:41.229                             : en:01:05:41.229
01:10:14.544                             : en:01:10:14.544
01:14:33.761                             : en:01:14:33.761
01:19:29.723                             : en:01:19:29.723
01:21:56.995                             : en:01:21:56.995
Світлини




Джерело: &
Особиста оцінка: 10 - без зайвих вагань рекомендую всім!


 Трекер:    Зареєстрований   

Завантажити / скачати мультфільм українською



відео для новачків



 Зареєстрований:   2019-07-29 22:50
 Розмір:   3.74 GB 
 Оцінка мультфільму:   9.9/10 (Голосів: 14)
   
Інші релізи
   Нікчемний я 3 / Despicable Me 3 (2017) AVC Drool  14 / 0   1.54 GB   2018-11-17 00:03 
   Нікчемний я 3 / Despicable Me 3 (2017) 720p Ukr/Eng | Sub Eng igor911  11 / 0   3.46 GB   2018-11-16 20:10 
   Нікчемний я 3 / Despicable Me 3 (2017) Remux 1080p Ukr/Eng | Sub Eng igor911  6 / 0   18.41 GB   2018-11-16 19:32 
   Нікчемний я 3 / Despicable Me 3 (2017) 1080p Ukr/Eng | Sub Eng Electroz  14 / 0   7.13 GB   2018-11-15 23:32 
   Нікчемний я 3 / Despicable Me 3 (2017) Covenant  27 / 0   1.45 GB   2017-09-19 12:35 
Ваш часовий пояс: GMT + 2 Години

Нова тема   Відповісти