Посіпаки / Minions (2015) 1080p H.265 Ukr/Eng | Sub Ukr/Eng

Нові коментарі

Нова тема   Відповісти
Автор Повідомлення
Anonymous 







2019-07-29 21:50  
Посіпаки / Minions (2015) 1080p H.265 Ukr/Eng | Sub Ukr/Eng

Посіпаки / Minions (2015) 1080p H.265 Ukr/Eng | Sub Ukr/Eng


Жанр: анімація, комедія, сімейний
Країна: США
Кінокомпанія: Illumination Entertainment
Режисер: Кайл Балда / Kyle Balda та П'єр Соффін / Pierre Coffin
Актори: Сандра Баллок / Sandra Bullock, Джон Гемм / Jon Hamm, Майкл Кітон / Michael Keaton, Еллісон Дженні / Allison Janney, Стів Куґан / Steve Coogan, Дженіфер Сoндерс / Jennifer Saunders, Джефрі Раш / Geoffrey Rush, Стів Карелл / Steve Carell, П'єр Соффін / Pierre Coffin, Хіроюкі Санада / Hiroyuki Sanada та інші

Сюжет:
Виявляється, невгамовні жовті Посіпаки пройшли довгий шлях еволюції від одноклітинних істот до розумних створінь. І в усі часи вони служили лише найбільш амбітним негідникам. Відсутність господаря їх пригнічує, і у пошуках нового боса Посіпаки вирушають на всесвітню конференцію лиходіїв. Тут і починаються пригоди…

Тривалість: 01:30:57
Якість:
Відео:
кодек: H.265 (HEVC)
розмір кадру: 1920 x 1036
бітрейт: 8 759 кб/с
бітова глибина: 10 біт
Увага! Перед завантаженням переконайтесь, що ваш пристрій відтворення (та/або ПЗ) підтримує H.265 (HEVC)

Аудіо # 1:
мова: українська
переклад: професійний дубльований
кодек: AC-3 5.1
бітрейт: 640 кб/с

Аудіо # 2:
мова: англійська
переклад: оригінал
кодек: AC-3 5.1
бітрейт: 640 кб/с

Субтитри # 1:
мова: українська (Forced),
тип: програмні (м'які)
формат: *.srt

Субтитри # 2:
мова: українська (Full),
тип: програмні (м'які)
формат: *.srt

Субтитри # 3:
мова: англійська (Full),
тип: програмні (м'які)
формат: *.srt

Субтитри # 4:
мова: англійська (SDH),
тип: програмні (м'які)
формат: *.srt


Info
Код:
General
Unique ID                                : 304960490463131274206199599281984181916 (0xE56D410903A4AE8A9F109775C0CF169C)
Complete name                            : Minions (2015) 1080p H.265 [UKR_ENG] [Hurtom].
Format                                   :
Format version                           : Version 4 / Version 2
File size                                : 6.38 GiB
Duration                                 : 1 h 30 min
Overall bit rate                         : 10.0 Mb/s
Movie name                               : Посіпаки / Minions (2015)
Encoded date                             : UTC 2019-07-29 19:31:04
Writing application                      : v20.0.0 ('I Am The Sun') 64-bit
Writing library                          : libebml v1.3.5 + v1.4.8
Cover                                    : Yes
Attachments                              : cover.jpg

Video
ID                                       : 1
Format                                   : HEVC
Format/Info                              : High Efficiency Video Coding
Format profile                           : Main [email protected]@High
Codec ID                                 : V_MPEGH/ISO/HEVC
Duration                                 : 1 h 30 min
Bit rate                                 : 8 759 kb/s
Width                                    : 1 920 pixels
Height                                   : 1 036 pixels
Display aspect ratio                     : 1.85:1
Frame rate mode                          : Constant
Frame rate                               : 23.976 (24000/1001) FPS
Color space                              : YUV
Chroma subsampling                       : 4:2:0
Bit depth                                : 10 bits
Bits/(Pixel*Frame)                       : 0.184
Stream size                              : 5.57 GiB (87%)
Title                                    : Посіпаки / Minions (2015)
Writing library                          : x265 3.0_Au+4-dcbec33bfb0f:[Windows][MSVC 1916][64 bit] 10bit
Encoding settings                        : cpuid=1111039 / frame-threads=3 / numa-pools=12 / wpp / no-pmode / no-pme / no-psnr / no-ssim / log-level=2 / input-csp=1 / input-res=1920x1036 / interlace=0 / total-frames=118193 / level-idc=41 / high-tier=1 / uhd-bd=0 / ref=5 / no-allow-non-conformance / no-repeat-headers / annexb / no-aud / no-hrd / info / hash=0 / no-temporal-layers / open-gop / min-keyint=23 / keyint=240 / gop-lookahead=0 / bframes=13 / b-adapt=2 / b-pyramid / bframe-bias=0 / rc-lookahead=60 / lookahead-slices=4 / scenecut=40 / radl=0 / no-splice / no-intra-refresh / ctu=32 / min-cu-size=8 / rect / amp / max-tu-size=32 / tu-inter-depth=4 / tu-intra-depth=4 / limit-tu=1 / rdoq-level=2 / dynamic-rd=0.00 / no-ssim-rd / signhide / no-tskip / nr-intra=0 / nr-inter=0 / no-constrained-intra / no-strong-intra-smoothing / max-merge=4 / limit-refs=2 / limit-modes / me=3 / subme=7 / merange=57 / temporal-mvp / weightp / weightb / no-analyze-src-pics / deblock=-3:-3 / no-sao / no-sao-non-deblock / rd=6 / no-early-skip / no-rskip / no-fast-intra / no-tskip-fast / no-cu-lossless / no-b-intra / no-splitrd-skip / rdpenalty=0 / psy-rd=2.00 / psy-rdoq=1.00 / no-rd-refine / no-lossless / cbqpoffs=0 / crqpoffs=0 / rc=crf / crf=20.0 / qcomp=0.60 / qpstep=4 / stats-write=0 / stats-read=0 / vbv-maxrate=50000 / vbv-bufsize=50000 / vbv-init=0.9 / crf-max=0.0 / crf-min=0.0 / ipratio=1.40 / pbratio=1.30 / aq-mode=1 / aq-strength=0.90 / no-cutree / zone-count=0 / no-strict-cbr / qg-size=32 / no-rc-grain / qpmax=69 / qpmin=0 / no-const-vbv / sar=1 / overscan=0 / videoformat=5 / range=0 / colorprim=2 / transfer=2 / colormatrix=2 / chromaloc=0 / display-window=0 / max-cll=0,0 / min-luma=0 / max-luma=1023 / log2-max-poc-lsb=8 / vui-timing-info / vui-hrd-info / slices=1 / no-opt-qp-pps / no-opt-ref-list-length-pps / no-multi-pass-opt-rps / scenecut-bias=0.05 / no-opt-cu-delta-qp / no-aq-motion / no-hdr / no-hdr-opt / no-dhdr10-opt / no-idr-recovery-sei / analysis-reuse-level=5 / scale-factor=0 / refine-intra=0 / refine-inter=0 / refine-mv=0 / refine-ctu-distortion=0 / no-limit-sao / ctu-info=0 / no-lowpass-dct / refine-analysis-type=0 / copy-pic=1 / max-ausize-factor=1.0 / no-dynamic-refine / no-single-sei / no-hevc-aq / qp-adaptation-range=1.00
Default                                  : Yes
Forced                                   : No

Audio #1
ID                                       : 2
Format                                   : AC-3
Format/Info                              : Audio Coding 3
Codec ID                                 : A_AC3
Duration                                 : 1 h 30 min
Bit rate mode                            : Constant
Bit rate                                 : 640 kb/s
Channel(s)                               : 6 channels
Channel positions                        : Front: L C R, Side: L R, LFE
Sampling rate                            : 48.0 kHz
Frame rate                               : 31.250 FPS (1536 SPF)
Bit depth                                : 16 bits
Compression mode                         : Lossy
Stream size                              : 416 MiB (6%)
Title                                    : / 5.1 Ch / 640 kbps / ПД / Blu-Ray
Language                                 : Ukrainian
Service kind                             : Complete Main
Default                                  : Yes
Forced                                   : Yes

Audio #2
ID                                       : 3
Format                                   : AC-3
Format/Info                              : Audio Coding 3
Codec ID                                 : A_AC3
Duration                                 : 1 h 30 min
Bit rate mode                            : Constant
Bit rate                                 : 640 kb/s
Channel(s)                               : 6 channels
Channel positions                        : Front: L C R, Side: L R, LFE
Sampling rate                            : 48.0 kHz
Frame rate                               : 31.250 FPS (1536 SPF)
Bit depth                                : 16 bits
Compression mode                         : Lossy
Stream size                              : 416 MiB (6%)
Title                                    : / 5.1 Ch / 640 kbps / Original
Language                                 : English
Service kind                             : Complete Main
Default                                  : No
Forced                                   : No

Text #1
ID                                       : 4
Format                                   : UTF-8
Codec ID                                 : S_TEXT/UTF8
Codec ID/Info                            : UTF-8 Plain Text
Duration                                 : 1 h 7 min
Bit rate                                 : 3 b/s
Count of elements                        : 39
Stream size                              : 1.49 KiB (0%)
Title                                    : Forced
Language                                 : Ukrainian
Default                                  : Yes
Forced                                   : Yes

Text #2
ID                                       : 5
Format                                   : UTF-8
Codec ID                                 : S_TEXT/UTF8
Codec ID/Info                            : UTF-8 Plain Text
Duration                                 : 1 h 29 min
Bit rate                                 : 52 b/s
Count of elements                        : 631
Stream size                              : 34.3 KiB (0%)
Title                                    : Full
Language                                 : Ukrainian
Default                                  : No
Forced                                   : No

Text #3
ID                                       : 6
Format                                   : UTF-8
Codec ID                                 : S_TEXT/UTF8
Codec ID/Info                            : UTF-8 Plain Text
Duration                                 : 1 h 28 min
Bit rate                                 : 38 b/s
Count of elements                        : 1077
Stream size                              : 25.1 KiB (0%)
Title                                    : Full
Language                                 : English
Default                                  : No
Forced                                   : No

Text #4
ID                                       : 7
Format                                   : UTF-8
Codec ID                                 : S_TEXT/UTF8
Codec ID/Info                            : UTF-8 Plain Text
Duration                                 : 1 h 30 min
Bit rate                                 : 59 b/s
Count of elements                        : 1686
Stream size                              : 39.7 KiB (0%)
Title                                    : SDH
Language                                 : English
Default                                  : No
Forced                                   : No

Menu
00:00:00.000                             : en:Chapter 01
00:05:39.839                             : en:Chapter 02
00:11:28.938                             : en:Chapter 03
00:16:55.139                             : en:Chapter 04
00:22:28.430                             : en:Chapter 05
00:26:59.034                             : en:Chapter 06
00:32:54.639                             : en:Chapter 07
00:37:28.871                             : en:Chapter 08
00:40:58.831                             : en:Chapter 09
00:45:29.309                             : en:Chapter 10
00:49:24.086                             : en:Chapter 11
00:53:43.053                             : en:Chapter 12
00:57:04.921                             : en:Chapter 13
01:01:36.943                             : en:Chapter 14
01:05:54.700                             : en:Chapter 15
01:07:55.237                             : en:Chapter 16
01:11:19.149                             : en:Chapter 17
01:15:32.653                             : en:Chapter 18
01:21:12.826                             : en:Chapter 19
01:28:24.757                             : en:Chapter 20
01:30:57.743                             : en:Chapter 21
Світлини




Джерело: &
Особиста оцінка: 10 - без зайвих вагань рекомендую всім!


 Трекер:    Зареєстрований   

Завантажити / скачати мультфільм українською



відео для новачків



 Зареєстрований:   2019-07-29 21:50
 Розмір:   6.38 GB 
 Оцінка мультфільму:   9.4/10 (Голосів: 14)
   
Інші релізи
   Посіпаки / Minions (2015) UHD Remux 4K 2160p HDR H.265 Ukr/Eng | Sub Ukr/Eng RoMeL  1 / 0   47.11 GB   2020-11-30 13:33 
   Посіпаки / Minions (2015) Remux 1080p Ukr/Eng | Sub Ukr/Eng staf777  8 / 0   21.98 GB   2020-01-28 08:34 
   Посіпаки / Minions (2015) 3D 1080p Ukr/Eng | Sub Ukr/Eng [Half OverUnder] Andick  3 / 0   10.89 GB   2015-11-22 08:23 
   Посіпаки / Minions (2015) AVC Ukr/Eng | Sub Ukr/Eng AngryBirdsUA  22 / 0   2.18 GB   2015-11-20 21:02 
   Посіпаки / Minions (2015) 720p-mini (60 fps) Drool  3 / 0   5.48 GB   2015-11-19 09:04 
   Посіпаки / Minions (2015) 720p Ukr/Eng | Sub Ukr/Eng Drool  24 / 0   3.8 GB   2015-11-19 09:00 
   Посіпаки / Minions (2015) patriot2305  54 / 0   1.45 GB   2015-11-15 13:42 
   Посіпаки / Minions (2015) 1080p Ukr/Eng | Sub Ukr/Eng 11FrYkT  18 / 0   8.26 GB   2015-11-15 09:23 
Ваш часовий пояс: GMT + 2 Години

Нова тема   Відповісти