Люди в чорному: Інтернешнл / Men in Black: International (2019) 1080p Ukr/Eng | Sub Ukr/Eng

Нові коментарі

Нова тема   Відповісти
Автор Повідомлення
Anonymous 







2019-07-29 10:40  
Люди в чорному: Інтернешнл / Men in Black: International (2019) 1080p Ukr/Eng | Sub Ukr/Eng

Люди в чорному: Інтернешнл / Men in Black: International (2019) 1080p Ukr/Eng | Sub Ukr/Eng
Альтернативні постери

Люди в чорному: Інтернешнл / Men in Black: International (2019) 1080p Ukr/Eng | Sub Ukr/Eng

Люди в чорному: Інтернешнл / Men in Black: International (2019) 1080p Ukr/Eng | Sub Ukr/Eng



Жанр: екшн, пригодницький, комедія, фантастика
Країна: США



Кінокомпанія: Columbia Pictures, Sony Pictures Entertainment (SPE), Amblin Entertainment
Режисер: Ф. Ґері Ґрей / F. Gary Gray
Актори: Кріс Гемсворт / Chris Hemsworth, Тесса Томпсон / Tessa Thompson, Ліам Нісон / Liam Neeson, Кумейл Нанджіані / Kumail Nanjiani, Ребекка Ферґюсон / Rebecca Ferguson, Рейф Спалл / Rafe Spall, Емма Томпсон / Emma Thompson, Лоран Буржуа / Laurent Bourgeois, Ларрі Буржуа / Larry Bourgeois, Спенсер Вілдінґ / Spencer Wilding та інші

Сюжет:
Ви навіть про це не підозрюєте, але існує таємна організація, яка охороняє Землю від різного роду інопланетян і дивних істот. Це Люди в чорному. Як не складно здогадатися, вони майже завжди в чорних ділових костюмах. У них є свої агенти в усіх великих містах на нашій планеті. У кожного з Людей в чорному є нереально круті стволи та пристосування, які допомагають стежити за порядком на Землі, щоб інопланетяни не турбували людей. Час від часу там навіть проводиться набір новачків – так у пару до Агента Н потрапила Агент М. Ці двоє точно добре спрацюються, адже це так весело стріляти по монстрам. Буде багато драйву.
Офіційні українські трейлери:




Рейтинг MPAA: PG-13 - дітям до 13 років перегляд не бажаний
Вікова категорія: 12+

Тривалість: 01:54:49
Якість: 1080p
Відео:
кодек:
розмір кадру: 1920x958
бітрейт: 14,1 Мб/с

Аудіо # 1:
мова: українська
переклад: професійний дубльований
кодек: 5.1
бітрейт: 640 кб/с

Аудіо # 2:
мова: українська
переклад: професійний дубльований
кодек: 2.0 [стерео]
бітрейт: 192 кб/с

Аудіо # 3:
мова: англійська
переклад: оригінал
кодек: 5.1
бітрейт: 1509 кб/с

Субтитри # 1-2:
мова: українська (форсовані, повні)
тип: програмні (м'які)
формат: *.srt
переклад: Володимир Фатун

Субтитри # 3-4:
мова: англійська (повні, SDH)
тип: програмні (м'які)
формат: *.srt

Збережено оригінальні розділи, як на Blu-ray
Info
Код:

Complete name               : Men in Black International (2019) [Ukr,Eng sub.Ukr,Eng] 1080p [Hurtom].
Format                      :
Format version              : Version 4
File size                   : 13.2 GiB
Duration                    : 1 h 54 min
Overall bit rate            : 16.5 Mb/s
Movie name                  : Люди в чорному: Інтернешнл / Men in Black: International (2019) [Ukr,Eng sub.Ukr,Eng] 1080p [Hurtom]
Encoded date                : UTC 2019-10-01 14:45:00
Writing application         : v37.0.0 ('Leave It') 64-bit
Writing library             : libebml v1.3.9 + v1.5.2
Cover                       : Yes
Attachments                 : cover.jpg

Video
ID                          : 1
Format                      : AVC
Format/Info                 : Advanced Video Codec
Format profile              : [email protected]
Format settings             : CABAC / 4 Ref Frames
Format settings, CABAC      : Yes
Format settings, Reference  : 4 frames
Codec ID                    : V_MPEG4/ISO/AVC
Duration                    : 1 h 54 min
Bit rate                    : 14.1 Mb/s
Width                       : 1 920 pixels
Height                      : 958 pixels
Display aspect ratio        : 2.004
Frame rate mode             : Constant
Frame rate                  : 23.976 (24000/1001) FPS
Color space                 : YUV
Chroma subsampling          : 4:2:0
Bit depth                   : 8 bits
Scan type                   : Progressive
Bits/(Pixel*Frame)          : 0.321
Stream size                 : 11.3 GiB (86%)
Title                       : Люди в чорному: Інтернешнл / Men in Black: International (2019) 1080p [OlLanDGroup]
Writing library             : core 157 r2867+150 7e91e0e t_mod_Custom_2 [[email protected] X86_64]
Encoding settings           : cabac=1 / ref=4 / deblock=1:-3:-3 / analyse=0x3:0x133 / me=umh / subme=11 / psy=1 / fade_compensate=0.00 / psy_rd=1.00:0.00 / mixed_ref=1 / me_range=64 / chroma_me=1 / trellis=2 / 8x8dct=1 / cqm=0 / deadzone=21,11 / fast_pskip=0 / chroma_qp_offset=-3 / threads=24 / lookahead_threads=4 / sliced_threads=0 / nr=0 / decimate=1 / interlaced=0 / bluray_compat=0 / constrained_intra=0 / fgo=0 / bframes=8 / b_pyramid=2 / b_adapt=2 / b_bias=0 / direct=3 / weightb=1 / open_gop=0 / weightp=2 / keyint=250 / keyint_min=23 / scenecut=40 / intra_refresh=0 / rc=crf / mbtree=0 / crf=17.0000 / qcomp=0.70 / qpmin=0:0:0 / qpmax=69:69:69 / qpstep=4 / ip_ratio=1.40 / pb_ratio=1.30 / aq=3:1.00 / aq-sensitivity=10.00 / aq-factor=1.00:1.00:1.00 / aq2=0 / aq3=0
Language                    : English
Default                     : Yes
Forced                      : No

Audio #1
ID                          : 2
Format                      : AC-3
Format/Info                 : Audio Coding 3
Commercial name             : Dolby Digital
Codec ID                    : A_AC3
Duration                    : 1 h 54 min
Bit rate mode               : Constant
Bit rate                    : 640 kb/s
Channel(s)                  : 6 channels
Channel layout              : L R C LFE Ls Rs
Sampling rate               : 48.0 kHz
Frame rate                  : 31.250 FPS (1536 SPF)
Compression mode            : Lossy
Stream size                 : 526 MiB (4%)
Title                       : Dub [Blu-ray EUR], 5.1 640 Kbps
Language                    : Ukrainian
Service kind                : Complete Main
Default                     : Yes
Forced                      : No

Audio #2
ID                          : 3
Format                      : AC-3
Format/Info                 : Audio Coding 3
Commercial name             : Dolby Digital
Codec ID                    : A_AC3
Duration                    : 1 h 54 min
Bit rate mode               : Constant
Bit rate                    : 192 kb/s
Channel(s)                  : 2 channels
Channel layout              : L R
Sampling rate               : 48.0 kHz
Frame rate                  : 31.250 FPS (1536 SPF)
Compression mode            : Lossy
Stream size                 : 158 MiB (1%)
Title                       : Dub [iTunes], 2.0 [stereo] 192 Kbps
Language                    : Ukrainian
Service kind                : Complete Main
Default                     : No
Forced                      : No

Audio #3
ID                          : 4
Format                      :
Format/Info                 : Digital Theater Systems
Codec ID                    : A_DTS
Duration                    : 1 h 54 min
Bit rate mode               : Constant
Bit rate                    : 1 509 kb/s
Channel(s)                  : 6 channels
Channel layout              : C L R Ls Rs LFE
Sampling rate               : 48.0 kHz
Frame rate                  : 93.750 FPS (512 SPF)
Bit depth                   : 24 bits
Compression mode            : Lossy
Stream size                 : 1.21 GiB (9%)
Title                       : Original, 5.1 1509 Kbps
Language                    : English
Default                     : No
Forced                      : No

Text #1
ID                          : 5
Format                      : UTF-8
Codec ID                    : S_TEXT/UTF8
Codec ID/Info               : UTF-8 Plain Text
Duration                    : 6 s 507 ms
Bit rate                    : 108 b/s
Count of elements           : 3
Stream size                 : 88.0 Bytes (0%)
Title                       : Ukr Forced
Language                    : Ukrainian
Default                     : Yes
Forced                      : Yes

Text #2
ID                          : 6
Format                      : UTF-8
Codec ID                    : S_TEXT/UTF8
Codec ID/Info               : UTF-8 Plain Text
Duration                    : 1 h 53 min
Bit rate                    : 87 b/s
Count of elements           : 1519
Stream size                 : 72.4 KiB (0%)
Title                       : Ukr Full [iTunes]
Language                    : Ukrainian
Default                     : No
Forced                      : No

Text #3
ID                          : 7
Format                      : UTF-8
Codec ID                    : S_TEXT/UTF8
Codec ID/Info               : UTF-8 Plain Text
Duration                    : 1 h 43 min
Bit rate                    : 67 b/s
Count of elements           : 1688
Stream size                 : 51.1 KiB (0%)
Title                       : Eng Full
Language                    : English
Default                     : No
Forced                      : No

Text #4
ID                          : 8
Format                      : UTF-8
Codec ID                    : S_TEXT/UTF8
Codec ID/Info               : UTF-8 Plain Text
Duration                    : 1 h 53 min
Bit rate                    : 70 b/s
Count of elements           : 2016
Stream size                 : 58.6 KiB (0%)
Title                       : Eng SDH
Language                    : English
Default                     : No
Forced                      : No

Menu
00:00:00.000                : en:Chapter 01
00:07:58.686                : en:Chapter 02
00:15:33.098                : en:Chapter 03
00:20:09.583                : en:Chapter 04
00:27:17.135                : en:Chapter 05
00:34:29.650                : en:Chapter 06
00:46:10.267                : en:Chapter 07
00:50:32.028                : en:Chapter 08
00:59:01.204                : en:Chapter 09
01:03:12.914                : en:Chapter 10
01:10:51.413                : en:Chapter 11
01:14:35.929                : en:Chapter 12
01:25:31.209                : en:Chapter 13
01:28:49.574                : en:Chapter 14
01:34:29.246                : en:Chapter 15
01:43:31.830                : en:Chapter 16



Джерело: & &
Особиста оцінка: 7 - мені сподобалося, гарний розважальний пригодницький фільм для родинного перегляду
20.08.2019 реліз оновлено до , тепер без корейських субтитрів
25.08.2019 реліз оновлено до 'у, замінено звук з Line моно на iTunes стерео, додано українські субтитри

01.10.2019 реліз оновлено - додано українську 5.1 доріжку з блурея


 Трекер:    Зареєстрований   

Завантажити / скачати фільм українською



відео для новачків



 Зареєстрований:   2019-10-01 17:58
 Розмір:   13.22 GB 
 Оцінка фільму:   8.4/10 (Голосів: 107)
 ЗАЛИШАЙТЕСЬ ЯКОМОГА ДОВШЕ НА РОЗДАЧІ! ЗАВАНТАЖИВ САМ - ДАЙ ЗАВАНТАЖИТИ ІНШИМ!
   
-ПАН КОЦЬКИЙ- 
Свій


З нами з: 27.11.17
Востаннє: 11.10.19
Повідомлень: 76

2019-07-30 15:58  
Це що OPEN MATTE ??? Чи просто широкий формат обрізаний з боків ???
Wensun 
Свій


З нами з: 20.01.09
Востаннє: 15.10.19
Повідомлень: 138

2019-07-31 11:34  
Слабонько... навіть не дотягнули до рівня 1 і 2 частини.
KeryaS 
Поважний учасник


З нами з: 01.09.14
Востаннє: 16.10.19
Повідомлень: 212

2019-07-31 13:09  
Дуже слабо. До попередніх частин і приблизно не дотягує. Додивлявся через силу.
iereynazariy 
Новенький


З нами з: 26.11.16
Востаннє: 15.10.19
Повідомлень: 1

2019-08-02 15:57  
Таке враження що знімали одним дублем. На силу додивився. Якщо всі актори ще якось витягували, то ця чорнява геть партачила.
Electroz 
Відео Гуртом - підтримка та поширення
Відео Гуртом - підтримка та поширення


З нами з: 18.09.14
Востаннє: 17.10.19
Повідомлень: 3596

2019-08-20 11:25  
Вже вийшов 1080p.
Anonymous 







2019-08-20 13:07  
Реліз оновлено до , тепер без корейських субтитрів
vovarodis 
Новенький


З нами з: 12.09.14
Востаннє: 28.09.19
Повідомлень: 21

2019-08-21 10:53  
Якщо не асоціювати цей фільм з оригінальними трьома стрічками, то доволі непоганий фільм. 8/10
Jogino 
Частий відвідувач


З нами з: 21.04.13
Востаннє: 15.10.19
Повідомлень: 30

2019-08-22 16:16  
Прикол про молоток Тора на 10 балів.
usibat2015 
Свій


З нами з: 20.10.15
Востаннє: 16.10.19
Повідомлень: 80

2019-08-23 16:46  
Фільм гарний 10 з 10 гарно знятий сюжет кулл дивиться на одному подиху чекаєм 4к н265 реліз самої кращої якості
Anonymous 







2019-08-25 15:31  
Реліз оновлено до 'у, замінено звук з Line моно на iTunes стерео, додано українські субтитри
0mage0 
VIP


З нами з: 06.10.15
Востаннє: 16.10.19
Повідомлень: 525

2019-08-27 18:18  
Мені сподобалося. Простенько і зі смаком. Є все, що потрібно у фільмі про людей у чорному
прибульці, стрілянина, зрада в агенції, причому спочатку здається, що зрадник це один чувак, а потім виявляється, що це [спойлер] чувак
і нічого зайвого.

kiboal 
Свій


З нами з: 25.12.14
Востаннє: 16.10.19
Повідомлень: 120

2019-09-03 11:04  
Я чекав гіршого набагато, а так разок глянуть можно, для перезапуска на 3+, але маємо на 2019 рік таку формулу блокбастера.
Просто не чекайте від нього щось неймовірного, гляньте пару обзоров блогеров, його вобще з гівном змішали.

6із10 як на цьому ресурсі не брак.

Anonymous 







2019-10-01 17:59  
Реліз оновлено - додано українську 5.1 доріжку з блурея
Ваш часовий пояс: GMT + 2 Години

Нова тема   Відповісти