Суперкубок України 2019 | Динамо - Шахтар | Футбол 1 HD (28.07.2019) 720p

Нові коментарі

Нова тема   Відповісти
Останній раз роздавалося realyy (2020-04-29)
Автор Повідомлення
Anonymous 







2019-07-29 00:34  
Суперкубок України 2019 | Динамо - Шахтар | Футбол 1 HD (28.07.2019) 720p

Суперкубок України 2019 | Динамо - Шахтар | Футбол 1 HD (28.07.2019) 720p


Телеканал: Футбол 1 HD
Опис:
Суперкубок України 2019
Одеса. Стадіон "Чорноморець"
Тривалість:
53:32 + 52:44
Якість:
Відео:
кодек:
розмір кадру: 1280x720
бітрейт: 3289 кб/с

Аудіо:
мова: українська
переклад: одноголосий закадровий (Столярчук)
кодек: 2.0
бітрейт: 128 кб/с
Info
General
Complete name : Dynamo Kyiv_Shakhtar Donetsk (28.07.2019) [UKR].
Format :
Format version : Version 2
File size : 3.10 GiB
Duration : 2 h 7 min
Overall bit rate : 3 486 kb/s
Writing application : Lavf54.63.104
Writing library : Lavf54.63.104

Video
ID : 1
Format : AVC
Format/Info : Advanced Video Codec
Format profile : [email protected]
Format settings : CABAC / 4 Ref Frames
Format settings, CABAC : Yes
Format settings, RefFrames : 4 frames
Codec ID : V_MPEG4/ISO/AVC
Duration : 2 h 7 min
Bit rate : 3 289 kb/s
Width : 1 280 pixels
Height : 720 pixels
Display aspect ratio : 16:9
Frame rate mode : Constant
Frame rate : 50.000 FPS
Color space : YUV
Chroma subsampling : 4:2:0
Bit depth : 8 bits
Scan type : Progressive
Bits/(Pixel*Frame) : 0.071
Stream size : 2.92 GiB (94%)
Default : No
Forced : No

Audio
ID : 2
Format : AC-3
Format/Info : Audio Coding 3
Commercial name : Dolby Digital
Codec ID : A_AC3
Duration : 2 h 7 min
Bit rate mode : Constant
Bit rate : 128 kb/s
Channel(s) : 2 channels
Channel layout : L R
Sampling rate : 48.0 kHz
Frame rate : 31.250 FPS (1536 SPF)
Bit depth : 16 bits
Compression mode : Lossy
Stream size : 116 MiB (4%)
Language : Ukrainian
Service kind : Complete Main
Default : Yes
Forced : No
Скріншоти


Подяка за допомогу у створенні релізу : rgfootball
Особиста оцінка: 8 - мені сподобалося


Золотий реліз (завантажене не впливає на рейтинг)
 Трекер:    Зареєстрований   

Завантажити / скачати торрент



відео для новачків



 Зареєстрований:   2019-07-29 00:34
 Розмір:   3.1 GB 
 Оцінка:   9.8/10 (Голосів: 4)
   
Anonymous 







2019-08-04 21:10  
Не плохой вышел матч!
Ваш часовий пояс: GMT + 2 Години

Нова тема   Відповісти