Шазам! / Shazam! (2019) Ukr/Eng | Sub Eng

Нові коментарі

Нова тема   Відповісти
Автор Повідомлення
Anonymous 







2019-07-28 21:26  
Шазам! / Shazam! (2019) Ukr/Eng | Sub Eng

Шазам! / Shazam! (2019) Ukr/Eng | Sub Eng
Офіційні постери:





Жанр: бойовик, комедія, пригодницький, фентезі
Країна: США



Кінокомпанія: Warner Bros., DC Entertainment, DC Comics
Режисер: Девід Ф. Сандберг / David F. Sandberg
Актори: Закарі Лівай / Zachary Levi, Марк Стронг / Mark Strong, Ешер Енджел / Asher Angel, Джек Грейзер / Jack Dylan Grazer, Адам Броді / Adam Brody, Грейс Фултон / Grace Fulton, Джимон Гонсу / Djimon Hounsou, Фейті Херман / Faithe Herman, Міган Гуд / Meagan Good, Мішелль Борт / Michelle Borth та інші

Сюжет:
Тінейджер Біллі Бетсон отримує здатність у разі потреби перетворюватися на дорослого супергероя за допомогою одного чарівного слова.
Офіційний український тизер-трейлер:

Рейтинг MPAA: PG-13 - дітям до 13 років перегляд не бажаний
Вікова категорія: 12+

Тривалість: 02:11:43
Якість:

Відео:
кодек:
розмір кадру: 720 х 304
бітрейт: 1580 кб/с

Аудіо # 1:
мова: українська
переклад: професійний дубльований | студія Postmodern
кодек: 5.1
бітрейт: 384 кб/с
Інформація про дубляж
Переклад: Олег Колесніков
Режисер дубляжу: Анна Пащенко
Звукорежисер: Андрій Жолуденко
Звукорежисер перезапису: Юрій Антонов
Ролі дублювали: Захар Клименко, Володимир Машук, Віктор Григор'єв, Андрій Мостренко, Єлизавета Кучеренко, Світлана Шекера, Олексій Череватенко, Єгор Скороходько, Кирило Нікітенко та інші.

Фільм дубльовано компанією Postmodern.
Аудіо # 2:
мова: англійська
переклад: оригінал
кодек: 5.1
бітрейт: 384 кб/с

Субтитри # 1:
мова: українська (форсовані)
тип: програмні (м'які)
формат: *.srt

Субтитри # 2-4:
мова: англійська (повні, SDH, SDH кольорові)
тип: програмні (м'які)
формат: *.srt
Info
Код:
General
Complete name               : Shazam! (2019) [Ukr,Eng] [Hurtom].avi
Format                      : AVI
Format/Info                 : Audio Video Interleave
Format profile              : OpenDML
File size                   : 2.18 GiB
Duration                    : 2 h 11 min
Overall bit rate            : 2 366 kb/s
Movie name                  : Shazam! (2019) [Ukr,Eng] [Hurtom]
Writing application         : VirtualDubModUkr 1.5.10.2 (build 2542/release)
Writing library             : VirtualDubMod build 2542/release

Video
ID                          : 0
Format                      : MPEG-4 Visual
Format profile              : Advanced [email protected]
Format settings             : BVOP1 / Custom Matrix
Format settings, BVOP       : 1
Format settings, QPel       : No
Format settings, GMC        : No warppoints
Format settings, Matrix     : Custom
Codec ID                    :
Codec ID/Hint               :
Duration                    : 2 h 11 min
Bit rate                    : 1 580 kb/s
Width                       : 720 pixels
Height                      : 304 pixels
Display aspect ratio        : 2.35:1
Frame rate                  : 23.976 (24000/1001) FPS
Color space                 : YUV
Chroma subsampling          : 4:2:0
Bit depth                   : 8 bits
Scan type                   : Progressive
Compression mode            : Lossy
Bits/(Pixel*Frame)          : 0.301
Stream size                 : 1.45 GiB (67%)
Writing library             : 73

Audio #1
ID                          : 1
Format                      : AC-3
Format/Info                 : Audio Coding 3
Commercial name             : Dolby Digital
Codec ID                    : 2000
Duration                    : 2 h 11 min
Bit rate mode               : Constant
Bit rate                    : 384 kb/s
Channel(s)                  : 6 channels
Channel layout              : L R C LFE Ls Rs
Sampling rate               : 48.0 kHz
Frame rate                  : 31.250 FPS (1536 SPF)
Bit depth                   : 16 bits
Compression mode            : Lossy
Stream size                 : 362 MiB (16%)
Alignment                   : Split across interleaves
Interleave, duration        : 42  ms (1.00 video frame)
Interleave, preload duratio : 500  ms
Title                       : UKR DUB [Postmodern, iTunes 5.1]
Service kind                : Complete Main

Audio #2
ID                          : 2
Format                      : AC-3
Format/Info                 : Audio Coding 3
Commercial name             : Dolby Digital
Codec ID                    : 2000
Duration                    : 2 h 11 min
Bit rate mode               : Constant
Bit rate                    : 384 kb/s
Channel(s)                  : 6 channels
Channel layout              : L R C LFE Ls Rs
Sampling rate               : 48.0 kHz
Frame rate                  : 31.250 FPS (1536 SPF)
Bit depth                   : 16 bits
Compression mode            : Lossy
Stream size                 : 362 MiB (16%)
Alignment                   : Split across interleaves
Interleave, duration        : 42  ms (1.00 video frame)
Interleave, preload duratio : 500  ms
Service kind                : Complete Main



Джерело: &
Подяка Ham_R за постер.


 Трекер:    Зареєстрований   

Завантажити / скачати фільм українською



відео для новачків



 Зареєстрований:   2019-07-28 21:26
 Розмір:   2.18 GB 
 Оцінка фільму:   8.6/10 (Голосів: 17)
 ЗАЛИШАЙТЕСЬ ЯКОМОГА ДОВШЕ НА РОЗДАЧІ! ЗАВАНТАЖИВ САМ - ДАЙ ЗАВАНТАЖИТИ ІНШИМ!
   
Інші релізи
   Шазам! / Shazam! (2019) surikmas  21 / 0   790 MB   2019-08-02 11:18 
   Шазам! / Shazam! (2019) 1080p Ukr/Eng | Sub Eng staf777  40 / 1   10.14 GB   2019-07-31 20:39 
   Шазам! / Shazam! (2019) Remux 1080p Ukr/Eng | Sub Eng kryk-v.ya.  17 / 0   27.25 GB   2019-07-28 20:27 
   Шазам! / Shazam! (2019) UHD Remux 4K 2160p HDR H.265 Ukr/Eng | Sub Eng antik_2008  8 / 0   74.79 GB   2019-07-28 15:13 
   Шазам! / Shazam! (2019) AVC Ukr/Eng | Sub Eng 11FrYkT  54 / 0   2.44 GB   2019-07-28 11:17 
   Шазам! / Shazam! (2019) 720p Ukr/Eng | Sub Eng 11FrYkT  59 / 5   5.7 GB   2019-07-28 11:01 
   Шазам! / Shazam! (2019) igor911  166 / 3   1.46 GB   2019-07-10 15:38 
Ваш часовий пояс: GMT + 2 Години

Нова тема   Відповісти