Формула 1. Сезон 2019. Етап 11. Гран-Прі Німеччини. Гонка (28.07.2019) HDTV 720p 2xUkr,Eng

Нові коментарі

Нова тема   Відповісти
Автор Повідомлення
sergiyko.5 
VIP


З нами з: 25.02.16
Востаннє: 28.10.20
Повідомлень: 3643

2019-07-28 19:34  
Формула 1. Сезон 2019. Етап 11. Гран-Прі Німеччини. Гонка (28.07.2019) HDTV 720p 2xUkr,Eng

Формула 1. Сезон 2019. Етап 11. Гран-Прі Німеччини. Гонка (28.07.2019) HDTV 720p 2xUkr,Eng

Жанр: Перегони Формули 1
Країна: Німеччина
Телеканал: F1 TV
Коментатор: Роман Гончаров, Максим Подзігун

Опис:
Гонка одинадцятого етапу Гран-Прі Німеччини 2019 року.


Якість: HDTV

Відео:кодек: розмір кадру: 1280 х 720 бітрейт: 3700 кб/с
Аудіо 1: мова: українська кодек: MP2 2.0 бітрейт: 192 кб/с
Аудіо 2: мова: українська кодек: MP2 2.0 бітрейт: 192 кб/с
Аудіо 3: мова: англійська кодек: MP2 2.0 бітрейт: 192 кб/с
Тривалість:
02:12:34
Про файл:
General
Unique ID : 238792529881385969582316206700484609498 (0xB3A5C4B4841402E4D6502E8F9BF3C5DA)
Complete name : E:\content\films\F1.2019.11.Germany.Race.720p.HDTV.Ukr.Eng.
Format :
Format version : Version 4
File size : 3.91 GiB
Duration : 2 h 12 min
Overall bit rate : 4 221 kb/s
Movie name : Formula1 2019 Germany by sergiyko
Encoded date : UTC 2019-07-28 17:28:38
Writing application : v35.0.0 ('All The Love In The World') 64-bit
Writing library : libebml v1.3.9 + v1.5.2

Video
ID : 1
Format : AVC
Format/Info : Advanced Video Codec
Format profile : [email protected]
Format settings : CABAC / 5 Ref Frames
Format settings, CABAC : Yes
Format settings, Reference : 5 frames
Codec ID : V_MPEG4/ISO/AVC
Duration : 2 h 12 min
Bit rate : 3 706 kb/s
Width : 1 280 pixels
Height : 720 pixels
Display aspect ratio : 16:9
Frame rate mode : Constant
Frame rate : 50.000 FPS
Color space : YUV
Chroma subsampling : 4:2:0
Bit depth : 8 bits
Scan type : Progressive
Bits/(Pixel*Frame) : 0.080
Stream size : 3.43 GiB (88%)
Language : English
Default : Yes
Forced : No
Color range : Limited
Matrix coefficients : BT.709

Audio #1
ID : 2
Format : MPEG Audio
Format version : Version 1
Format profile : Layer 2
Codec ID : A_MPEG/L2
Codec ID/Hint : MP2
Duration : 2 h 12 min
Bit rate mode : Constant
Bit rate : 192 kb/s
Channel(s) : 2 channels
Sampling rate : 48.0 kHz
Frame rate : 41.667 FPS (1152 SPF)
Compression mode : Lossy
Delay relative to video : -200 ms
Stream size : 182 MiB (5%)
Title : Роман Гончаров
Language : Ukrainian
Default : Yes
Forced : No

Audio #2
ID : 3
Format : MPEG Audio
Format version : Version 1
Format profile : Layer 2
Codec ID : A_MPEG/L2
Codec ID/Hint : MP2
Duration : 2 h 12 min
Bit rate mode : Constant
Bit rate : 192 kb/s
Channel(s) : 2 channels
Sampling rate : 48.0 kHz
Frame rate : 41.667 FPS (1152 SPF)
Compression mode : Lossy
Delay relative to video : -200 ms
Stream size : 182 MiB (5%)
Title : Максим Подзігун
Language : Ukrainian
Default : No
Forced : No

Audio #3
ID : 4
Format : MPEG Audio
Format version : Version 1
Format profile : Layer 2
Codec ID : A_MPEG/L2
Codec ID/Hint : MP2
Duration : 2 h 12 min
Bit rate mode : Constant
Bit rate : 128 kb/s
Channel(s) : 2 channels
Sampling rate : 48.0 kHz
Frame rate : 41.667 FPS (1152 SPF)
Compression mode : Lossy
Delay relative to video : -200 ms
Stream size : 121 MiB (3%)
Language : English
Default : No
Forced : No
Скріншоти:


Зведення/запис: sergiyko


 Трекер:    Зареєстрований   

Завантажити / скачати торрент



відео для новачків



 Зареєстрований:   2019-07-28 19:34
 Розмір:   3.91 GB 
 Оцінка:   10/10 (Голосів: 35)
   
zordexxx 
Новенький


З нами з: 21.04.16
Востаннє: 27.10.20
Повідомлень: 6

2019-07-29 09:08  
нагадую

armogun 
Попереджень: 1
Попереджень: 1 


З нами з: 04.05.13
Востаннє: 27.10.20
Повідомлень: 701

2019-07-29 09:19  
[spoiler]Ахахах, гімн мошкостану не пролунав, санкції це круто[/spoiler]
N.W.A 
VIP


З нами з: 22.11.13
Востаннє: 26.10.20
Повідомлень: 355

2019-07-29 22:43  
На даний момент найцікавіша гонка сезону, кажу як фанат Ф1 який дивиться всі гран-прі.
Цитата:
Ахахах, гімн мошкостану не пролунав, санкції це круто

А з якого дива він мав лунати?
Гімн лунає в честь національності переможця, та команди.

armogun 
Попереджень: 1
Попереджень: 1 


З нами з: 04.05.13
Востаннє: 27.10.20
Повідомлень: 701

2019-07-30 10:43  
[b]N.W.A[/b]
Безперечно найцікавіша. Не звертав увагу на гімн

astjeronimus 
Новенький


З нами з: 23.06.19
Востаннє: 28.09.19
Повідомлень: 1

2019-09-10 19:11  
Дякую за це. Питання, напсано 2 коментатора,а є можливість обирати серед них? дякую.
sergiyko.5 
VIP


З нами з: 25.02.16
Востаннє: 28.10.20
Повідомлень: 3643

2019-09-10 19:27  
astjeronimus
В кожному плеєрі хоч залізному, хоч софтовому, повинен бути вибір аудіодоріжки. Почитайте про свій плеєр в інтернеті.

Ваш часовий пояс: GMT + 2 Години

Нова тема   Відповісти