Земля до початку часів 3. Пора великих дарів / The Land Before Time III: The Time of the Great Giving (1995) 1080p Ukr/Eng | Sub Eng

Нові коментарі

Нова тема   Відповісти
Автор Повідомлення
sergiyko.5 
Забанено
Забанено


З нами з: 25.02.16
Востаннє: 29.10.20
Повідомлень: 3648

2019-07-28 08:19  
Земля до початку часів 3. Пора великих дарів / The Land Before Time III: The Time of the Great Giving (1995) 1080p Ukr/Eng | Sub Eng

Земля до початку часів 3. Пора великих дарів / The Land Before Time III: The Time of the Great Giving (1995) 1080p Ukr/Eng | Sub Eng

Жанр: мультфільм, пригоди, сімейний
Країна: США
Режисер: Рой Ален Сміт
Актори: Скот МакЕфі, Кендес Хатсон, Хезер Хоган

Сюжет:
Одного разу на Велику Долину впав великий метеорит, який відрізав місцевих жителів від запасів води. Серед миролюбних, колись, динозаврів починає зростати напруга.
Літлфут та його друзі вирішують допомогти батькам: динозаврики вирушають на пошуки води. І, о диво! Нашим маленьким сміливцям пощастило знайти нове водоймище! Але воно розташоване між Великою Долиною й тими страшними, таємничими місцями, де мешкають страшні Гострозуби...




Тривалість: 01:10:48
Якість:

Відео: кодек: розмір кадру: 1920 х 1080 бітрейт: 13900 кб/с
Аудіо # 1: мова: українська переклад: багатоголосий закадровий кодек: 2.0 бітрейт: 192 кб/с
Озвучення:
Аудіо # 2: мова: англійська переклад: оригінал кодек: E- 2.0 бітрейт: 224 кб/с
Субтитри: мова: англійська тип: програмні (м'які) формат: *.srt
Про файл:
General
Unique ID : 301341262225888667029603158405931696335 (0xE2B4374E6639209F3006A3F2C20D80CF)
Complete name : E:\content\films\The Land Before Time III.The Time of the Great Giving.1080p..Ukr.Eng.
Format :
Format version : Version 4
File size : 7.08 GiB
Duration : 1 h 10 min
Overall bit rate mode : Variable
Overall bit rate : 14.3 Mb/s
Movie name : The Land Before Time III.The Time of the Great Giving 1080p by sergiyko
Encoded date : UTC 2019-07-28 06:37:39
Writing application : v35.0.0 ('All The Love In The World') 64-bit
Writing library : libebml v1.3.9 + v1.5.2

Video
ID : 1
Format : AVC
Format/Info : Advanced Video Codec
Format profile : [email protected]
Format settings : CABAC / 4 Ref Frames
Format settings, CABAC : Yes
Format settings, Reference : 4 frames
Codec ID : V_MPEG4/ISO/AVC
Duration : 1 h 10 min
Bit rate mode : Variable
Bit rate : 13.9 Mb/s
Maximum bit rate : 15.0 Mb/s
Width : 1 920 pixels
Height : 1 080 pixels
Display aspect ratio : 16:9
Frame rate mode : Constant
Frame rate : 23.976 (24000/1001) FPS
Color space : YUV
Chroma subsampling : 4:2:0
Bit depth : 8 bits
Scan type : Progressive
Bits/(Pixel*Frame) : 0.280
Stream size : 6.88 GiB (97%)
Title : The Land Before Time III.The Time of the Great Giving
Language : English
Default : Yes
Forced : No
Color range : Limited
Color primaries : BT.709
Transfer characteristics : BT.709
Matrix coefficients : BT.709

Audio #1
ID : 2
Format : AC-3
Format/Info : Audio Coding 3
Commercial name : Dolby Digital
Codec ID : A_AC3
Duration : 1 h 10 min
Bit rate mode : Constant
Bit rate : 192 kb/s
Channel(s) : 2 channels
Channel layout : L R
Sampling rate : 48.0 kHz
Frame rate : 31.250 FPS (1536 SPF)
Bit depth : 16 bits
Compression mode : Lossy
Stream size : 97.2 MiB (1%)
Title : MOV | K1
Language : Ukrainian
Service kind : Complete Main
Default : Yes
Forced : Yes

Audio #2
ID : 3
Format : E-AC-3
Format/Info : Enhanced AC-3
Commercial name : Dolby Digital Plus
Codec ID : A_EAC3
Duration : 1 h 10 min
Bit rate mode : Constant
Bit rate : 224 kb/s
Channel(s) : 2 channels
Channel layout : L R
Sampling rate : 48.0 kHz
Frame rate : 31.250 FPS (1536 SPF)
Compression mode : Lossy
Stream size : 113 MiB (2%)
Title : Original
Language : English
Service kind : Complete Main
Default : No
Forced : No

Text
ID : 4
Format : UTF-8
Codec ID : S_TEXT/UTF8
Codec ID/Info : UTF-8 Plain Text
Duration : 1 h 4 min
Bit rate : 59 b/s
Count of elements : 1027
Stream size : 28.2 KiB (0%)
Language : English
Default : No
Forced : No
Скріншоти:


Запис/зведення: sergiyko


Срібний реліз (на рейтинг впливає 50% завантаженого)
 Трекер:    Зареєстрований   

Завантажити / скачати мультфільм українською



відео для новачків



 Зареєстрований:   2019-07-28 08:43
 Розмір:   7.08 GB 
 Оцінка мультфільму:   10/10 (Голосів: 6)
   
Electroz 
Відео Гуртом - підтримка та поширення
Відео Гуртом - підтримка та поширення


З нами з: 18.09.14
Востаннє: 07.03.21
Повідомлень: 4339

2019-07-28 09:25  
sergiyko.5
З К1 ще є дубляж до 1-2 частини.

max factor 
Частий відвідувач


З нами з: 08.01.19
Востаннє: 01.02.21
Повідомлень: 42

2019-07-31 00:49  
Чудово. Можете і їх додати?
zim333 
Свій


З нами з: 15.07.11
Востаннє: 06.03.21
Повідомлень: 117

2019-07-31 15:13  
Будуть інші частини з дубляжем від К1? Вони наче показували всі наявні частини.
sergiyko.5 
Забанено
Забанено


З нами з: 25.02.16
Востаннє: 29.10.20
Повідомлень: 3648

2019-07-31 15:27  
zim333
В мене записи з українською озвучкою відсутні.

Electroz 
Відео Гуртом - підтримка та поширення
Відео Гуртом - підтримка та поширення


З нами з: 18.09.14
Востаннє: 07.03.21
Повідомлень: 4339

2019-07-31 15:31  
sergiyko.5 написано:
В мене записи з українською озвучкою відсутні.

https://toloka.to/t6081-10710#1057911

xslim 
Відео Гуртом - фільмокрай
Відео Гуртом - фільмокрай


З нами з: 04.03.09
Востаннє: 07.03.21
Повідомлень: 1412

2019-07-31 18:16  
Ваш часовий пояс: GMT + 2 Години

Нова тема   Відповісти