Формула 1. Сезон 2019. Етап 9. Гран-Прі Австрії. Кваліфікація (29.06.2019) 720p Ukr/Eng/Int

Нові коментарі

Нова тема   Відповісти
Останній раз роздавалося Ant_SUmy (2020-10-07)
Автор Повідомлення
sergiyko.5 
VIP


З нами з: 25.02.16
Востаннє: 20.10.20
Повідомлень: 3578

2019-07-28 08:45  
Формула 1. Сезон 2019. Етап 9. Гран-Прі Австрії. Кваліфікація (29.06.2019) 720p Ukr/Eng/Int

Формула 1. Сезон 2019. Етап 9. Гран-Прі Австрії. Кваліфікація (29.06.2019) 720p Ukr/Eng/Int

Жанр: Перегони Формули 1
Країна: Австрія
Телеканал: F1 TV
Коментар: Максим Подзігун (1), SkySports F1 (2)

Опис:
Кваліфікація девятого етапу Гран-Прі Австрії 2019 року.


Якість:

Відео:кодек: розмір кадру: 1280 х 720 бітрейт: 4900 кб/с
Аудіо 1: мова: українська кодек: 2.0 бітрейт: 192 кб/с
Аудіо 2: мова: англійська кодек: 5.1 бітрейт: 384 кб/с
Аудіо 3: мова: - кодек: 5.1 бітрейт: 448 кб/с
Тривалість:
01:37:25
Про файл:
General
Unique ID : 222872977903129068473603086440125073302 (0xA7ABC6319143B44F643DF1EE2BC68796)
Complete name : E:\content\films\F1.2019.09.Austria.Qualifying.720p..Ukr.Eng.
Format :
Format version : Version 4
File size : 4.03 GiB
Duration : 1 h 37 min
Overall bit rate : 5 921 kb/s
Movie name : F1 2019 09 Austria Qualifying 720p by sergiyko
Encoded date : UTC 2019-07-28 05:36:58
Writing application : v35.0.0 ('All The Love In The World') 64-bit
Writing library : libebml v1.3.9 + v1.5.2

Video
ID : 1
Format : AVC
Format/Info : Advanced Video Codec
Format profile : [email protected]
Format settings : CABAC / 9 Ref Frames
Format settings, CABAC : Yes
Format settings, Reference : 9 frames
Codec ID : V_MPEG4/ISO/AVC
Duration : 1 h 37 min
Bit rate : 4 894 kb/s
Width : 1 280 pixels
Height : 720 pixels
Display aspect ratio : 16:9
Frame rate mode : Constant
Frame rate : 50.000 FPS
Color space : YUV
Chroma subsampling : 4:2:0
Bit depth : 8 bits
Scan type : Progressive
Bits/(Pixel*Frame) : 0.106
Stream size : 3.33 GiB (83%)
Title : F1 2019 09 Austria Qualifying
Writing library : core 157 r2969 d4099dd
Encoding settings : cabac=1 / ref=9 / deblock=1:-1:-1 / analyse=0x3:0x133 / me=umh / subme=9 / psy=1 / psy_rd=1.00:0.00 / mixed_ref=1 / me_range=24 / chroma_me=1 / trellis=2 / 8x8dct=1 / cqm=0 / deadzone=21,11 / fast_pskip=1 / chroma_qp_offset=-2 / threads=22 / lookahead_threads=3 / sliced_threads=0 / nr=0 / decimate=1 / interlaced=0 / bluray_compat=0 / constrained_intra=0 / bframes=8 / b_pyramid=2 / b_adapt=2 / b_bias=0 / direct=3 / weightb=1 / open_gop=0 / weightp=2 / keyint=250 / keyint_min=25 / scenecut=40 / intra_refresh=0 / rc_lookahead=60 / rc=crf / mbtree=1 / crf=21.0 / qcomp=0.60 / qpmin=0 / qpmax=69 / qpstep=4 / ip_ratio=1.40 / aq=1:1.00
Language : English
Default : Yes
Forced : No

Audio #1
ID : 2
Format : AC-3
Format/Info : Audio Coding 3
Commercial name : Dolby Digital
Codec ID : A_AC3
Duration : 1 h 37 min
Bit rate mode : Constant
Bit rate : 192 kb/s
Channel(s) : 2 channels
Channel layout : L R
Sampling rate : 48.0 kHz
Frame rate : 31.250 FPS (1536 SPF)
Bit depth : 16 bits
Compression mode : Lossy
Delay relative to video : 170 ms
Stream size : 134 MiB (3%)
Title : Максим Подзігун
Language : Ukrainian
Service kind : Complete Main
Default : Yes
Forced : Yes

Audio #2
ID : 3
Format : AC-3
Format/Info : Audio Coding 3
Commercial name : Dolby Digital
Codec ID : A_AC3
Duration : 1 h 37 min
Bit rate mode : Constant
Bit rate : 384 kb/s
Channel(s) : 6 channels
Channel layout : L R C LFE Ls Rs
Sampling rate : 48.0 kHz
Frame rate : 31.250 FPS (1536 SPF)
Bit depth : 16 bits
Compression mode : Lossy
Delay relative to video : 170 ms
Stream size : 268 MiB (6%)
Title : SkySports F1
Language : English
Service kind : Complete Main
Default : No
Forced : No

Audio #3
ID : 4
Format : AC-3
Format/Info : Audio Coding 3
Commercial name : Dolby Digital
Codec ID : A_AC3
Duration : 1 h 37 min
Bit rate mode : Constant
Bit rate : 448 kb/s
Channel(s) : 6 channels
Channel layout : L R C LFE Ls Rs
Sampling rate : 48.0 kHz
Frame rate : 31.250 FPS (1536 SPF)
Bit depth : 16 bits
Compression mode : Lossy
Delay relative to video : 170 ms
Stream size : 312 MiB (8%)
Title : Natural Sounds
Service kind : Complete Main
Default : No
Forced : No
Скріншоти:


Ріп: sergiyko


Золотий реліз (завантажене не впливає на рейтинг)
 Трекер:    Зареєстрований   

Завантажити / скачати торрент



відео для новачків



 Зареєстрований:   2019-07-28 08:45
 Розмір:   4.03 GB 
 Оцінка:   10/10 (Голосів: 3)
   
Ваш часовий пояс: GMT + 2 Години

Нова тема   Відповісти