Формула 1. Сезон 2019. Етап 11. Гран-Прі Німеччини. Кваліфікація (27.07.2019) 720p 2xUkr,Eng

Нові коментарі

Нова тема   Відповісти
Останній раз роздавалося VIT5330 (2020-03-07)
Автор Повідомлення
sergiyko.5 
VIP


З нами з: 25.02.16
Востаннє: 23.10.20
Повідомлень: 3611

2019-07-27 19:46  
Формула 1. Сезон 2019. Етап 11. Гран-Прі Німеччини. Кваліфікація (27.07.2019) 720p 2xUkr,Eng

Формула 1. Сезон 2019. Етап 11. Гран-Прі Німеччини. Кваліфікація (27.07.2019) 720p 2xUkr,Eng

Жанр: Перегони Формули 1
Країна: Німеччина
Телеканал: F1 TV
Коментатор: Роман Гончаров, Максим Подзігун

Опис:
Кваліфікація одинадцятого етапу Гран-Прі Німеччини 2019 року.


Якість:

Відео:кодек: розмір кадру: 1280 х 720 бітрейт: 4000 кб/с
Аудіо 1: мова: українська кодек: 2.0 бітрейт: 192 кб/с
Аудіо 2: мова: українська кодек: 2.0 бітрейт: 192 кб/с
Аудіо 3: мова: англійська кодек: 2.0 бітрейт: 192 кб/с
Тривалість:
01:16:24
Про файл:
General
Unique ID : 103563346668469595539251847443219027212 (0x4DE9933668E23CEA63FC205E0115150C)
Complete name : E:\content\films\F1.2019.11.German.Qualifying.720p..Ukr.Eng.
Format :
Format version : Version 4
File size : 2.37 GiB
Duration : 1 h 16 min
Overall bit rate : 4 448 kb/s
Movie name : Formula1 2019 German Qualifying by sergiyko
Encoded date : UTC 2019-07-27 16:40:18
Writing application : v35.0.0 ('All The Love In The World') 64-bit
Writing library : libebml v1.3.9 + v1.5.2

Video
ID : 1
Format : AVC
Format/Info : Advanced Video Codec
Format profile : [email protected]
Format settings : CABAC / 4 Ref Frames
Format settings, CABAC : Yes
Format settings, Reference : 4 frames
Format settings, GOP : M=4, N=50
Codec ID : V_MPEG4/ISO/AVC
Duration : 1 h 16 min
Bit rate mode : Constant
Bit rate : 4 000 kb/s
Width : 1 280 pixels
Height : 720 pixels
Display aspect ratio : 16:9
Frame rate mode : Constant
Frame rate : 25.000 FPS
Color space : YUV
Chroma subsampling : 4:2:0
Bit depth : 8 bits
Scan type : Progressive
Bits/(Pixel*Frame) : 0.174
Stream size : 2.13 GiB (90%)
Language : English
Default : Yes
Forced : No

Audio #1
ID : 2
Format : LC
Format/Info : Advanced Audio Codec Low Complexity
Codec ID : A_AAC-2
Duration : 1 h 16 min
Bit rate : 192 kb/s
Channel(s) : 2 channels
Channel layout : L R
Sampling rate : 48.0 kHz
Frame rate : 46.875 FPS (1024 SPF)
Compression mode : Lossy
Delay relative to video : -191 ms
Stream size : 105 MiB (4%)
Title : Роман Гончаров
Language : Ukrainian
Default : Yes
Forced : No

Audio #2
ID : 3
Format : LC
Format/Info : Advanced Audio Codec Low Complexity
Codec ID : A_AAC-2
Duration : 1 h 16 min
Bit rate : 192 kb/s
Channel(s) : 2 channels
Channel layout : L R
Sampling rate : 48.0 kHz
Frame rate : 46.875 FPS (1024 SPF)
Compression mode : Lossy
Delay relative to video : -191 ms
Stream size : 105 MiB (4%)
Title : Максим Подзігун
Language : Ukrainian
Default : No
Forced : No

Audio #3
ID : 4
Format : LC
Format/Info : Advanced Audio Codec Low Complexity
Codec ID : A_AAC-2
Duration : 1 h 16 min
Bit rate : 61.7 kb/s
Channel(s) : 2 channels
Channel layout : L R
Sampling rate : 44.1 kHz
Frame rate : 43.066 FPS (1024 SPF)
Compression mode : Lossy
Stream size : 33.7 MiB (1%)
Language : English
Default : No
Forced : No
Скріншоти:


Зведення/запис: sergiyko


 Трекер:    Зареєстрований   

Завантажити / скачати торрент



відео для новачків



 Зареєстрований:   2019-07-27 19:46
 Розмір:   2.37 GB 
 Оцінка:   10/10 (Голосів: 3)
   
bugmenotbugmenot 
Новенький


З нами з: 17.12.16
Востаннє: 17.10.20
Повідомлень: 4

2019-07-27 21:21  
дякую за те, що і доріжку Гончарова викладаєш!
Ваш часовий пояс: GMT + 2 Години

Нова тема   Відповісти