Формула 1. Сезон 2019. Етап 11. Гран-Прі Німеччини. Кваліфікація (27.07.2019) HDTV 1080p 2xUkr,Pol

Нові коментарі

Нова тема   Відповісти
Автор Повідомлення
sergiyko.5 
VIP


З нами з: 25.02.16
Востаннє: 24.10.20
Повідомлень: 3615

2019-07-27 18:37  
Формула 1. Сезон 2019. Етап 11. Гран-Прі Німеччини. Кваліфікація (27.07.2019) HDTV 1080p 2xUkr,Pol

Формула 1. Сезон 2019. Етап 11. Гран-Прі Німеччини. Кваліфікація (27.07.2019) HDTV 1080p 2xUkr,Pol

Жанр: Перегони Формули 1
Країна: Німеччина
Телеканал: Eleven Sport HD
Коментатор: Роман Гончаров, Максим Подзігун

Опис:
Кваліфікація одинадцятого етапу Гран-Прі Німеччини 2019 року.


Якість: HDTV

Відео:кодек: розмір кадру: 1920 х 1080 бітрейт: 6600 кб/с
Аудіо 1: мова: українська кодек: MP2 2.0 бітрейт: 192 кб/с
Аудіо 2: мова: українська кодек: MP2 2.0 бітрейт: 192 кб/с
Аудіо 3: мова: польська кодек: 2.0 бітрейт: 192 кб/с

Примітка: наявна реклама загальною тривалістю 10 хвилин, була вирізана
Тривалість:
01:05:29
Про файл:
General
Unique ID : 215174409241081889278639110765120125715 (0xA1E1157411ADF9D7DCB792174854FB13)
Complete name : E:\content\films\F1.2019.11.Germany.Qualifying.1080p.HDTV.Ukr.Pol.
Format :
Format version : Version 4
File size : 3.35 GiB
Duration : 1 h 5 min
Overall bit rate : 7 325 kb/s
Writing application : VideoReDo (Lavf56.25.101)
Writing library : VideoReDo (Lavf56.25.101)

Video
ID : 1
Format : AVC
Format/Info : Advanced Video Codec
Format profile : [email protected]
Format settings : CABAC / 4 Ref Frames
Format settings, CABAC : Yes
Format settings, Reference : 4 frames
Codec ID : V_MPEG4/ISO/AVC
Duration : 1 h 5 min
Bit rate : 6 635 kb/s
Width : 1 920 pixels
Height : 1 080 pixels
Display aspect ratio : 16:9
Frame rate mode : Constant
Frame rate : 25.000 FPS
Standard : Component
Color space : YUV
Chroma subsampling : 4:2:0
Bit depth : 8 bits
Scan type : Interlaced
Scan type, store method : Separated fields
Scan order : Top Field First
Bits/(Pixel*Frame) : 0.128
Stream size : 3.04 GiB (91%)
Default : No
Forced : No
Color range : Limited
Color primaries : BT.709
Transfer characteristics : BT.709
Matrix coefficients : BT.709

Audio #1
ID : 2
Format : MPEG Audio
Format version : Version 1
Format profile : Layer 2
Codec ID : A_MPEG/L2
Codec ID/Hint : MP2
Duration : 1 h 5 min
Bit rate mode : Constant
Bit rate : 192 kb/s
Channel(s) : 2 channels
Sampling rate : 48.0 kHz
Compression mode : Lossy
Stream size : 89.9 MiB (3%)
Language : Ukrainian
Default : Yes
Forced : No

Audio #2
ID : 3
Format : MPEG Audio
Format version : Version 1
Format profile : Layer 2
Codec ID : A_MPEG/L2
Codec ID/Hint : MP2
Duration : 1 h 5 min
Bit rate mode : Constant
Bit rate : 192 kb/s
Channel(s) : 2 channels
Sampling rate : 48.0 kHz
Compression mode : Lossy
Stream size : 89.9 MiB (3%)
Language : Ukrainian
Default : No
Forced : No

Audio #3
ID : 4
Format : AC-3
Format/Info : Audio Coding 3
Commercial name : Dolby Digital
Codec ID : A_AC3
Duration : 1 h 5 min
Bit rate mode : Constant
Bit rate : 160 kb/s
Channel(s) : 2 channels
Channel layout : L R
Sampling rate : 48.0 kHz
Frame rate : 31.250 FPS (1536 SPF)
Bit depth : 16 bits
Compression mode : Lossy
Stream size : 74.9 MiB (2%)
Language : Polish
Service kind : Complete Main
Default : No
Forced : No

Menu
00:00:00.000 : :Chapter 1
00:03:15.319 : :Chapter 2
00:23:48.639 : :Chapter 3
00:41:56.439 : :Chapter 4
Скріншоти:


Зведення/запис: sergiyko


Золотий реліз (завантажене не впливає на рейтинг)
 Трекер:    Зареєстрований   

Завантажити / скачати торрент



відео для новачків



 Зареєстрований:   2019-07-27 18:37
 Розмір:   3.35 GB 
 Оцінка:   10/10 (Голосів: 9)
   
Ваш часовий пояс: GMT + 2 Години

Нова тема   Відповісти