Формула 1. Сезон 2019. Етап 11. Гран-Прі Німеччини. Кваліфікація (27.07.2019) 1080p 2xUkr

Нові коментарі

Нова тема   Відповісти
Останній раз роздавалося yavik92 (2020-06-20)
Автор Повідомлення
sergiyko.5 
Забанено
Забанено


З нами з: 25.02.16
Востаннє: 29.10.20
Повідомлень: 3651

2019-07-27 16:30  
Формула 1. Сезон 2019. Етап 11. Гран-Прі Німеччини. Кваліфікація (27.07.2019) 1080p

Формула 1. Сезон 2019. Етап 11. Гран-Прі Німеччини. Кваліфікація (27.07.2019) 1080p 2xUkr

Жанр: Перегони Формули 1
Країна: Німеччина
Телеканал: F1UA
Коментатор: Роман Гончаров, Максим Подзігун

Опис:
Кваліфікація одинадцятого етапу Гран-Прі Німеччини 2019 року.


Якість:

Відео:кодек: розмір кадру: 1920 х 1080 бітрейт: 2340 кб/с
Аудіо 1: мова: українська кодек: 2.0 бітрейт: 192 кб/с
Аудіо 2: мова: українська кодек: 2.0 бітрейт: 192 кб/с
Тривалість:
01:15:11
Про файл:
General
Unique ID : 137564834919712395892019873762877452453 (0x677E060338B3D4CFEC7C6BA7E1F930A5)
Complete name : E:\content\films\F1.2019.11.Germany.Qualifying.1080p..Ukr.
Format :
Format version : Version 4
File size : 1.42 GiB
Duration : 1 h 15 min
Overall bit rate : 2 694 kb/s
Movie name : rip by sergiyko
Encoded date : UTC 2019-07-27 14:28:27
Writing application : v35.0.0 ('All The Love In The World') 64-bit
Writing library : libebml v1.3.9 + v1.5.2

Video
ID : 1
Format : AVC
Format/Info : Advanced Video Codec
Format profile : [email protected]
Format settings : CABAC / 4 Ref Frames
Format settings, CABAC : Yes
Format settings, Reference : 4 frames
Codec ID : V_MPEG4/ISO/AVC
Duration : 1 h 15 min
Bit rate : 2 337 kb/s
Width : 1 920 pixels
Height : 1 080 pixels
Display aspect ratio : 16:9
Frame rate mode : Variable
Frame rate : 30.000 FPS
Color space : YUV
Chroma subsampling : 4:2:0
Bit depth : 8 bits
Scan type : Progressive
Bits/(Pixel*Frame) : 0.038
Stream size : 1.23 GiB (87%)
Language : English
Default : Yes
Forced : No

Audio #1
ID : 2
Format : LC
Format/Info : Advanced Audio Codec Low Complexity
Codec ID : A_AAC-2
Duration : 1 h 15 min
Bit rate : 161 kb/s
Channel(s) : 2 channels
Channel layout : L R
Sampling rate : 44.1 kHz
Frame rate : 43.066 FPS (1024 SPF)
Compression mode : Lossy
Delay relative to video : 4 ms
Stream size : 86.7 MiB (6%)
Title : Роман Гончаров
Language : Ukrainian
Default : Yes
Forced : Yes

Audio #2
ID : 3
Format : LC
Format/Info : Advanced Audio Codec Low Complexity
Codec ID : A_AAC-2
Duration : 1 h 15 min
Bit rate : 192 kb/s
Channel(s) : 2 channels
Channel layout : L R
Sampling rate : 48.0 kHz
Frame rate : 46.875 FPS (1024 SPF)
Compression mode : Lossy
Delay relative to video : 13 ms
Stream size : 103 MiB (7%)
Title : Максим Подзігун
Language : Ukrainian
Default : No
Forced : No
Скріншоти:


Зведення/запис: sergiyko


 Трекер:    Зареєстрований   

Завантажити / скачати торрент



відео для новачків



 Зареєстрований:   2019-07-27 16:30
 Розмір:   1.42 GB 
 Оцінка:   9.8/10 (Голосів: 4)
   
Ваш часовий пояс: GMT + 2 Години

Нова тема   Відповісти