Кладовище домашніх тварин / Pet Sematary (2019) 1080p Ukr/Eng | Sub Ukr/Eng

Нові коментарі

Нова тема   Відповісти
Автор Повідомлення
Anonymous 







2019-07-27 12:34  
Кладовище домашніх тварин / Pet Sematary (2019) 1080p Ukr/Eng | Sub Ukr/Eng



Альтернативні постери



Жанр: трилер, жахи
Країна: США





Кінокомпанія: Paramount Pictures
Режисер: Кевін Колш, Денніс Відмайєр
Актори: Джейсон Кларк, Емі Саймец, Джон Літгоу, Жете Лоранс, Хьюго Лавуа, Лукас Лавуа, Обсса Ахмед, Алісса Брук Лівайн, Марія Херрера, Френк Скорпіон

Сюжет:
Молода сім'я на чолі з Лукасом Крідом перебралася з багатолюдного Бостона в затишний будиночок у містечку Мейн. Батькові сімейства вдалося роздобути відмінні апартаменти за порівняно низьку ціну, та й ще виторгував ліс біля будинку. Кругом майже немає людей, Кріди можуть насолоджуватися спокоєм цього умиротвореного краю. У нещасному випадку загинула кішка – улюблениця сімейства не витримала зіткнення з вантажівкою. Недалеко від будинку Лукас знайшов щось дивне – кладовище домашніх тварин. В окрузі ходять дуже погані легенди про це місце, у що, звичайно ж, чоловік не вірить. Але саме після смерті кішки починають відбуватися дуже дивні події. Мертвим потрібно залишатися мертвими...


Тривалість: 01:40:49
Якість: 1080p

Відео:
кодек:
розмір кадру: 1920x804
бітрейт: 18.8 мб/с

Аудіо # 1:
мова: українська
переклад: професійний дубльований
кодек: 5.1
бітрейт: 384 кб/с

Аудіо # 2:
мова: англійська
переклад: оригінал
кодек: 5.1
бітрейт: 640 кб/с

Джерело озвучення:


Субтитри # 1:
мова: українська
тип: програмні (м'які)| (forced, full)
формат: *.srt

Субтитри # 2-4:
мова: англійська
тип: програмні (м'які) | (full, SDH)
формат: *.srt
Info
Код:
General
Complete name                            : Pet Sematary (2019) 1080p [UKR_ENG] [ViDeO_Hurtom].
Format                                   :
Format version                           : Version 4
File size                                : 13.9 GiB
Duration                                 : 1 h 40 min
Overall bit rate                         : 19.8 Mb/s
Movie name                               : Pet Sematary (2019) 1080p [UKR_ENG] [ViDeO_Hurtom]
Encoded date                             : UTC 2019-07-27 09:03:31
Writing application                      : v30.1.0 ('Forever And More') 64-bit
Writing library                          : libebml v1.3.6 + v1.4.9

Video
ID                                       : 1
Format                                   : AVC
Format/Info                              : Advanced Video Codec
Format profile                           : [email protected]
Format settings                          : CABAC / 5 Ref Frames
Format settings, CABAC                   : Yes
Format settings, RefFrames               : 5 frames
Codec ID                                 : V_MPEG4/ISO/AVC
Duration                                 : 1 h 40 min
Bit rate                                 : 18.8 Mb/s
Width                                    : 1 920 pixels
Height                                   : 804 pixels
Display aspect ratio                     : 2.40:1
Frame rate mode                          : Constant
Frame rate                               : 23.976 (24000/1001) FPS
Color space                              : YUV
Chroma subsampling                       : 4:2:0
Bit depth                                : 8 bits
Scan type                                : Progressive
Bits/(Pixel*Frame)                       : 0.507
Stream size                              : 13.2 GiB (95%)
Title                                    : iFT
Writing library                          : core 155 r2867+74 66b5600 t_mod_Custom_2 [[email protected] X86_64]
Encoding settings                        : cabac=1 / ref=5 / deblock=1:-3:-3 / analyse=0x3:0x113 / me=umh / subme=11 / psy=1 / fade_compensate=0.00 / psy_rd=1.00:0.00 / mixed_ref=1 / me_range=32 / chroma_me=1 / trellis=2 / 8x8dct=1 / cqm=0 / deadzone=21,11 / fast_pskip=0 / chroma_qp_offset=-2 / threads=18 / lookahead_threads=3 / sliced_threads=0 / nr=0 / decimate=0 / interlaced=0 / bluray_compat=0 / constrained_intra=0 / fgo=0 / bframes=8 / b_pyramid=2 / b_adapt=2 / b_bias=0 / direct=3 / weightb=1 / open_gop=0 / weightp=2 / keyint=250 / keyint_min=23 / scenecut=40 / intra_refresh=0 / rc_lookahead=60 / rc=crf / mbtree=0 / crf=15.9000 / qcomp=0.60 / qpmin=0:0:0 / qpmax=69:69:69 / qpstep=4 / vbv_maxrate=62500 / vbv_bufsize=78125 / crf_max=0.0 / nal_hrd=none / filler=0 / ip_ratio=1.30 / pb_ratio=1.20 / aq=3:0.80 / aq-sensitivity=10.00 / aq-factor=1.00:1.00:1.00 / aq2=0 / aq3=0
Language                                 : English
Default                                  : Yes
Forced                                   : No
Color range                              : Limited
Color primaries                          : BT.709
Transfer characteristics                 : BT.709
Matrix coefficients                      : BT.709

Audio #1
ID                                       : 2
Format                                   : AC-3
Format/Info                              : Audio Coding 3
Commercial name                          : Dolby Digital
Codec ID                                 : A_AC3
Duration                                 : 1 h 40 min
Bit rate mode                            : Constant
Bit rate                                 : 384 kb/s
Channel(s)                               : 6 channels
Channel layout                           : L R C LFE Ls Rs
Sampling rate                            : 48.0 kHz
Frame rate                               : 31.250 FPS (1536 SPF)
Bit depth                                : 16 bits
Compression mode                         : Lossy
Stream size                              : 277 MiB (2%)
Title                                    : , 6 ch, 384 Кбт/с
Language                                 : Ukrainian
Service kind                             : Complete Main
Default                                  : Yes
Forced                                   : No

Audio #2
ID                                       : 3
Format                                   : AC-3
Format/Info                              : Audio Coding 3
Commercial name                          : Dolby Digital
Codec ID                                 : A_AC3
Duration                                 : 1 h 40 min
Bit rate mode                            : Constant
Bit rate                                 : 640 kb/s
Channel(s)                               : 6 channels
Channel layout                           : L R C LFE Ls Rs
Sampling rate                            : 48.0 kHz
Frame rate                               : 31.250 FPS (1536 SPF)
Bit depth                                : 16 bits
Compression mode                         : Lossy
Stream size                              : 462 MiB (3%)
Title                                    : , 6 ch, 640 Кбт/с
Language                                 : English
Service kind                             : Complete Main
Default                                  : No
Forced                                   : No

Text #1
ID                                       : 4
Format                                   : UTF-8
Codec ID                                 : S_TEXT/UTF8
Codec ID/Info                            : UTF-8 Plain Text
Duration                                 : 1 h 14 min
Bit rate                                 : 1 b/s
Count of elements                        : 15
Stream size                              : 778 Bytes (0%)
Title                                    : Forced
Language                                 : Ukrainian
Default                                  : Yes
Forced                                   : No

Text #2
ID                                       : 5
Format                                   : UTF-8
Codec ID                                 : S_TEXT/UTF8
Codec ID/Info                            : UTF-8 Plain Text
Duration                                 : 1 h 34 min
Bit rate                                 : 58 b/s
Count of elements                        : 868
Stream size                              : 40.5 KiB (0%)
Title                                    : Full
Language                                 : Ukrainian
Default                                  : No
Forced                                   : No

Text #3
ID                                       : 6
Format                                   : UTF-8
Codec ID                                 : S_TEXT/UTF8
Codec ID/Info                            : UTF-8 Plain Text
Duration                                 : 1 h 32 min
Bit rate                                 : 36 b/s
Count of elements                        : 856
Stream size                              : 24.6 KiB (0%)
Title                                    : Full
Language                                 : English
Default                                  : No
Forced                                   : No

Text #4
ID                                       : 7
Format                                   : UTF-8
Codec ID                                 : S_TEXT/UTF8
Codec ID/Info                            : UTF-8 Plain Text
Duration                                 : 1 h 36 min
Bit rate                                 : 45 b/s
Count of elements                        : 1211
Stream size                              : 32.1 KiB (0%)
Title                                    : SDH
Language                                 : English
Default                                  : No
Forced                                   : No

Menu
00:00:00.000                             : en:Chapter 01
00:07:16.353                             : en:Chapter 02
00:12:14.025                             : en:Chapter 03
00:19:38.386                             : en:Chapter 04
00:25:30.070                             : en:Chapter 05
00:30:09.725                             : en:Chapter 06
00:35:18.325                             : en:Chapter 07
00:46:02.843                             : en:Chapter 08
00:50:44.792                             : en:Chapter 09
00:57:47.964                             : en:Chapter 10
01:06:57.722                             : en:Chapter 11
01:14:12.573                             : en:Chapter 12
01:22:52.009                             : en:Chapter 13
01:32:19.909                             : en:Chapter 14
01:36:41.295                             : en:Chapter 15
Скріншоти




Джерело:
Особиста оцінка: 0 - не дивився


 Трекер:    Зареєстрований   

Завантажити / скачати фільм українською



відео для новачків



 Зареєстрований:   2019-07-27 12:34
 Розмір:   13.93 GB 
 Оцінка фільму:   9.4/10 (Голосів: 13)
   
KeryaS 
VIP


З нами з: 01.09.14
Востаннє: 29.09.20
Повідомлень: 303

2019-07-27 13:30  
Такий собі фільм, досить посередній.
fanatos93 
Новенький


З нами з: 13.10.13
Востаннє: 23.09.20
Повідомлень: 23

2019-07-27 18:47  
Фільм можна дивитися, не поганий.
Ваш часовий пояс: GMT + 2 Години

Нова тема   Відповісти