Химерні пригоди Джо Джо / JoJo's Bizarre Adventure (серії 20 з 26) (2012-2013) 1080p Jap | sub Ukr

Нові коментарі

Нова тема   Відповісти
Сторінка:  1, 2  наступна
Автор Повідомлення
Amanogawa 
VIP


З нами з: 27.09.17
Востаннє: 09.04.20
Повідомлень: 651

2019-07-26 14:27  
Химерні пригоди Джо Джо / JoJo's Bizarre Adventure (серії 20 з 26) (2012-2013) 1080p Jap | sub Ukr



Жанр: Бойовик, Надприродне, Пригоди, Шьонен
Країна: Японія



Кінокомпанія: David Production
Режисер: Цуда Наокацу, Сузукі Кен'ічі
Сюжет: В 1880 році, в Ліверпулі, що в Англії, молодий Джонатан Джостар, відомий своїм друзям як Джо Джо, мирно живе зі своїм батьком Джорджом. Інший хлопець, на ім'я Діо Брандо, по причині смерті свого батька, Даріо, усиновлюється Джорджем, який переконаний у тому, що він та його син під час аварії були врятовані за допомогою Даріо, який, насправді, намагався поцупити їх речі. Джонатан намагається подружитись з Діо, не знаючи про план Діо по загарбанню спадку сім'ї Джостарів.


Тривалість: 00:24:00 на серю. Усього 26 серій.
Перелік серій:

1."Dio the Invader" ( Руйнівник Діо)
2."A Letter From the Past" ( Лист з минулого)
3. "Youth with Dio" ( Моє дитинство із Діо)
4. "Overdrive" ( Овердрайв)
5. "The Dark Knights" ( Лицарі темряви)
6. "Tomorrow's Courage" ( Завтрашня мужність)
7. "Sorrowful Successor" ( Спадкоємець)
8. "Bloody Battle! JoJo & Dio" ( Кривава битва між Джо Джо та Діо)
9. "The Final Hamon!" ( Останній хамон!)
10."New York's JoJo" ( Джо Джо в Нью-Йорку)
11. "The Game Master" ( Майстер гри)
12. "The Pillar Man" ( "Людина з Колони")
13. "JoJo vs. the Ultimate Lifeform" ( Джо Джо проти досконалого створіння)
14. "Ultimate Warriors from Ancient Times" ( Досконалі стародавні воїни)
15. "A hero's proof" ( Доказ геройства)
16. "Lisa Lisa, Hamon Coach" ( Ліза Ліза, тренерка хамону)
17. "The Deeper Plan" ( Глибоко продуманий план)
18. "Von Stroheim's Revenge" ( Помста Штрохайма)
19. "A Race Towards the Brink" ( Перегони до прірви)
20. "Young Caesar" ( Молодий Цезар)
21. "A Hundred Against Two" (сотня проти двох)
Якість:
Відео:
кодек:
розмір кадру: 1920*1080
бітрейт: 6 369 кб/с

Аудіо:
мова: японська
бітрейт: 128 kb/s
переклад: оригінал
кодек: 2.0

Субтитри:
мова: українська
тип: програмні (м'які)
формат: *.
Info
General
Unique ID : 163559740849643073114387251226256714807 (0x7B0C75D396FE386B2635825D1505AC37)
Complete name : D:\Химерні пригоди Джо Джо\Химерні пригоди Джо Джо серія 2 (Mitsuruki).
Format :
Format version : Version 4
File size : 1.06 GiB
Duration : 23 min 51 s
Overall bit rate : 6 369 kb/s
Encoded date : UTC 2019-07-29 17:29:07
Writing application : v31.0.0 ('Dolores In A Shoestand') 64-bit
Writing library : libebml v1.3.6 + v1.4.9

Video
ID : 2
Format : AVC
Format/Info : Advanced Video Codec
Format profile : [email protected]
Format settings : CABAC / 4 Ref Frames
Format settings, CABAC : Yes
Format settings, Reference : 4 frames
Codec ID : V_MPEG4/ISO/AVC
Duration : 23 min 51 s
Bit rate : 6 237 kb/s
Width : 1 920 pixels
Height : 1 080 pixels
Display aspect ratio : 16:9
Frame rate mode : Constant
Frame rate : 23.976 (24000/1001) FPS
Color space : YUV
Chroma subsampling : 4:2:0
Bit depth : 8 bits
Scan type : Progressive
Bits/(Pixel*Frame) : 0.125
Stream size : 1.04 GiB (98%)
Writing library : core 142
Encoding settings : cabac=1 / ref=4 / deblock=1:1:1 / analyse=0x3:0x113 / me=umh / subme=8 / psy=1 / psy_rd=0.40:0.00 / mixed_ref=1 / me_range=16 / chroma_me=1 / trellis=1 / 8x8dct=1 / cqm=0 / deadzone=21,11 / fast_pskip=1 / chroma_qp_offset=-2 / threads=12 / lookahead_threads=2 / sliced_threads=0 / nr=0 / decimate=1 / interlaced=0 / bluray_compat=0 / constrained_intra=0 / bframes=3 / b_pyramid=2 / b_adapt=2 / b_bias=0 / direct=3 / weightb=1 / open_gop=0 / weightp=2 / keyint=48 / keyint_min=24 / scenecut=40 / intra_refresh=0 / rc_lookahead=48 / rc=crf / mbtree=1 / crf=15.0 / qcomp=0.60 / qpmin=0 / qpmax=69 / qpstep=4 / vbv_maxrate=8000 / vbv_bufsize=12000 / crf_max=0.0 / nal_hrd=none / filler=0 / ip_ratio=1.40 / aq=1:0.60
Default : Yes
Forced : No

Audio
ID : 3
Format : LC
Format/Info : Advanced Audio Codec Low Complexity
Codec ID : A_AAC-2
Duration : 23 min 51 s
Bit rate : 128 kb/s
Channel(s) : 2 channels
Channel layout : L R
Sampling rate : 44.1 kHz
Frame rate : 43.066 FPS (1024 SPF)
Compression mode : Lossy
Delay relative to video : -83 ms
Stream size : 21.8 MiB (2%)
Default : Yes
Forced : No

Text
ID : 1
Format :
Codec ID : S_TEXT/
Codec ID/Info : Advanced Sub Station Alpha
Duration : 23 min 37 s
Bit rate : 1 367 b/s
Count of elements : 1599
Compression mode : Lossless
Stream size : 237 KiB (0%)
Title : Amanogawa
Language : Ukrainian
Default : Yes
Forced : Yes
Скріншоти



Переклад:Romix, Галицька Лолі, creator, Червона Дзюбка, 2bigHanz, Sidney
Редагування:panzerschreck, Romix

Джерело: Erai-Raws,Переклади Mitsuruki, Переклади Аманоґава
Особиста оцінка: 10 - без зайвих вагань рекомендую всім!


Золотий реліз (завантажене не впливає на рейтинг)
 Трекер:    Зареєстрований   

Завантажити / скачати аніме українською



відео для новачків



 Зареєстрований:   2020-03-21 20:34
 Розмір:   22.65 GB 
 Оцінка аніме:   7.9/10 (Голосів: 12)
   
Amanogawa 
VIP


З нами з: 27.09.17
Востаннє: 09.04.20
Повідомлень: 651

2019-07-26 14:27  
Тема ще, певно, буде оновлюватись. Буде також оновлюватись список серій. Постер теж буде інший. Пишіть, якщо щось не так.
leicheman 
Відео Гуртом - фільмокрай
Відео Гуртом - фільмокрай


З нами з: 03.07.14
Востаннє: 09.04.20
Повідомлень: 4586

2019-07-26 19:37  
Це я так розумію найперший Джо Джо? Багато бачив у різних коментарях про нього і у відосиках Гігука згадується часто
fanat22012 
VIP


З нами з: 26.06.17
Востаннє: 09.04.20
Повідомлень: 310

2019-07-27 08:16  
leicheman
Цитата:
Це я так розумію найперший Джо Джо?

Так

Amanogawa 
VIP


З нами з: 27.09.17
Востаннє: 09.04.20
Повідомлень: 651

2019-07-28 23:40  
Перереліз першої серії
Amanogawa 
VIP


З нами з: 27.09.17
Востаннє: 09.04.20
Повідомлень: 651

2019-07-29 20:33  
Додана 2 серія
Amanogawa 
VIP


З нами з: 27.09.17
Востаннє: 09.04.20
Повідомлень: 651

2019-07-30 09:50  
У медіа інфо помилка, буде змінена 1 серія та інформація
Amanogawa 
VIP


З нами з: 27.09.17
Востаннє: 09.04.20
Повідомлень: 651

2019-07-30 16:13  
виправлено і додано правильний файл
fanat22012 
VIP


З нами з: 26.06.17
Востаннє: 09.04.20
Повідомлень: 310

2019-07-30 16:53  
Гм, цікавеньки релізик вийшов, ще б хтось стояв на роздачі, бо нові серії додавати, старі оновлювати - це гарна справа, але ж...

Цитата:
2. "A Letter From the Past" ( Лист з минулого)

І змініть вже нарешті колір шрифту на чорний.

Amanogawa 
VIP


З нами з: 27.09.17
Востаннє: 09.04.20
Повідомлень: 651

2019-07-31 00:01  
Якісь глюки з роздачею. Завтра спробуємо розібратися


Роздача тимчасово на технічних роботах. До вечора впораємося.

Amanogawa 
VIP


З нами з: 27.09.17
Востаннє: 09.04.20
Повідомлень: 651

2019-07-31 18:27  
Поремонтували і відновили роздачу!

fanat22012
Тобто змінити колір шрифту на чорний?

Drevlen 
Новенький


З нами з: 05.07.11
Востаннє: 08.04.20
Повідомлень: 9

2019-08-01 10:11  
Не знав що мем з roundabout це Джоджо мем.
Amanogawa 
VIP


З нами з: 27.09.17
Востаннє: 09.04.20
Повідомлень: 651

2019-08-02 12:10  
Drevlen
That is all JOJO reference!

Amanogawa 
VIP


З нами з: 27.09.17
Востаннє: 09.04.20
Повідомлень: 651

2019-08-03 15:57  
додана 3 серія
Amanogawa 
VIP


З нами з: 27.09.17
Востаннє: 09.04.20
Повідомлень: 651

2019-08-09 23:46  
додана 4 серія
Shevadima 
Новенький


З нами з: 15.04.18
Востаннє: 01.03.20
Повідомлень: 1

2019-08-12 17:23  
наскільки часто виходитимуть нові серії?
Amanogawa 
VIP


З нами з: 27.09.17
Востаннє: 09.04.20
Повідомлень: 651

2019-08-12 21:47  
Shevadima
одна на тиждень точно

Amanogawa 
VIP


З нами з: 27.09.17
Востаннє: 09.04.20
Повідомлень: 651

2019-08-16 12:30  
додана 5 серія
Amanogawa 
VIP


З нами з: 27.09.17
Востаннє: 09.04.20
Повідомлень: 651

2019-08-21 13:38  
додана 6 серія
leicheman 
Відео Гуртом - фільмокрай
Відео Гуртом - фільмокрай


З нами з: 03.07.14
Востаннє: 09.04.20
Повідомлень: 4586

2019-08-21 13:51  
а озвучити не плануєте?
Amanogawa 
VIP


З нами з: 27.09.17
Востаннє: 09.04.20
Повідомлень: 651

2019-08-27 23:13  
leicheman
може хтось візьме, як усі серії вийдуть. А так ми не плануємо, поки що

Amanogawa 
VIP


З нами з: 27.09.17
Востаннє: 09.04.20
Повідомлень: 651

2019-08-30 10:54  
додана 7 серія
Будь ласка качайте та роздавайте

Amanogawa 
VIP


З нами з: 27.09.17
Востаннє: 09.04.20
Повідомлень: 651

2019-09-07 23:51  
Додана 8 серія
Amanogawa 
VIP


З нами з: 27.09.17
Востаннє: 09.04.20
Повідомлень: 651

2019-09-08 11:22  
Перезалив 8 серії, виправлено помилку
Amanogawa 
VIP


З нами з: 27.09.17
Востаннє: 09.04.20
Повідомлень: 651

2019-09-17 19:35  
додана 9 серія
Amanogawa 
VIP


З нами з: 27.09.17
Востаннє: 09.04.20
Повідомлень: 651

2019-10-13 23:52  
додана 10 серія
YuraVol 
Новенький


З нами з: 02.09.17
Востаннє: 29.03.20
Повідомлень: 4

2019-11-26 22:27  
Щось давненько нових серій немає(
Amanogawa 
VIP


З нами з: 27.09.17
Востаннє: 09.04.20
Повідомлень: 651

2019-12-07 00:27  
YuraVol
лови! А насправді всі просто дуже зайняті, проте проект не закинутий!

Додано через 3 хвилини 9 секунд:

додана 11 серія

fanat22012 
VIP


З нами з: 26.06.17
Востаннє: 09.04.20
Повідомлень: 310

2019-12-07 17:10  
Бачу, з толокою ви ще досі не дружете((
Раджу, вам викладати ще й в телеграмі мкв файли з серіями, бо тут завжди якісь трабли)

Amanogawa 
VIP


З нами з: 27.09.17
Востаннє: 09.04.20
Повідомлень: 651

2019-12-07 17:14  
fanat22012
на телеграмі мп4, а що тут за трабли?

Ваш часовий пояс: GMT + 2 Години

Нова тема   Відповісти Сторінка:  1, 2  наступна