Джей та Мовчазний Боб завдають удар у відповідь / Jay and Silent Bob Strike Back (2001) 1080p 3xUkr/Eng | Sub Eng

Нові коментарі

Нова тема   Відповісти
Автор Повідомлення
MakRA 
VIP


З нами з: 10.11.18
Востаннє: 27.01.20
Повідомлень: 697

2019-07-26 01:15  
Джей та Мовчазний Боб завдають удар у відповідь / Jay and Silent Bob Strike Back (2001) 1080p 3xUkr/Eng | Sub Eng



Жанр: комедія, пародія
Країна: США



Кінокомпанія: Dimension Films, View Askew Productions, Miramax Films
Режисер: Кевін Сміт [Kevin Smith]
Актори: Джейсон М'юз [Jason Mewes], Кевін Сміт [Kevin Smith], Бен Аффлек [Ben Affleck], Джефф Андерсон [Jeff Anderson], Браян О'Хеллоран [Brian O'Halloran], Шеннон Елізабет [Shannon Elizabeth], Еліза Душку [Eliza Dushku], Алі Лартер [Ali Larter], Дженніфер Швальбах Сміт [Jennifer Schwalbach Smith], Bілл Феррелл [Will Ferrell], Джейсон Лі [Jason Lee], Джадд Нельсон [Judd Nelson], Джордж Карлін [George Carlin], Керрі Фішер [Carrie Fisher], Шон Вільям Скотт [Seann William Scott], Мет Деймон [Matt Damon]

Сюжет:
У фільмі показані кілька днів з життя Джея і його мовчазного друга Боба.

Друзі цілими днями підпирають стіну магазину в Нью-Джерсі, але одного разу, після звинувачення в торгівлі наркотиками, отримують судову заборону наближатися до цього магазину. Вони діляться своєю бідою з продавцем коміксів Броді, від якого дізнаються, що за коміксом «Пихарь і Хронік» (англ. Bluntman and Chronic), створеним за мотивами їхнього життя, буде знято фільм. Побачивши в Інтернеті безліч образливих відгуків про цей комікс, майбутній фільм та персонажів, друзі вирішують зупинити цей потік негативу. Вони відправляються до Голлівуду, щоб зірвати зйомки фільму, або, як мінімум, отримати роялті за використання своїх образів. Так Джей і Боб потрапляють в низку ситуацій, що пародіюють всілякі фільми і серіали...



Тривалість: 01:44:27
Якість: 1080p
Відео:
кодек:
розмір кадру: 1920 х 816
бітрейт: 10,2 Mб/с

Аудіо # 1:
мова: українська
переклад: професійний дубльований
кодек: 2.0
бітрейт: 192 кб/с

Аудіо # 2:
мова: українська
переклад: багатоголосий закадровий | Омікрон
кодек: 5.1
бітрейт: 448 кб/с
Про озвучення:
Українською мовою озвучено студією Омікрон спеціально для HURTOM.COM.
Аудіо # 3:
мова: українська
переклад: двоголосий закадровий
кодек: 2.0
бітрейт: 448 кб/с
Про озвучення:

Фільм перекладено і озвучено студією Новий Канал
Ролі озвучили:Михайло Тишин і Катерина Брайковська .
Аудіо # 4:
мова: англійська
переклад: оригінал
кодек: 5.1
бітрейт: 448 кб/с

Аудіо # 5:
мова: англійська
переклад: оригінал | Коментарі режисера Кевіна Сміта
кодек: VORBIS 2.0
бітрейт: 64 кб/с

Субтитри # 1: (Full)
мова: англійська
тип: програмні (м'які)
формат: *.srt

Субтитри # 2: (SDH)
мова: англійська
тип: програмні (м'які)
формат: *.srt

Збережено оригінальні розділи, як на Blu-ray.
Info
General
Unique ID : 46613656751860333311610809539860398711 (0x231176B75FFC67A4C566E3B8B5688277)
Complete name : E:\Комедії\Jay and Silent Bob Strike Back (2001) 1080p 3хUkrEng Sub Eng [Hurtom].
Format :
Format version : Version 4
File size : 8.60 GiB
Duration : 1 h 44 min
Overall bit rate mode : Variable
Overall bit rate : 11.7 Mb/s
Movie name : Джей та Мовчазний Боб завдають удар у відповідь / Jay and Silent Bob Strike Back (2001) 1080p 3хUkr/Eng | Sub Eng[Hurtom]
Encoded date : UTC 2019-07-25 22:04:28
Writing application : v25.0.0 ('Prog Noir') 64-bit
Writing library : libebml v1.3.6 + v1.4.9
Cover : Yes
Attachments : TCCEB.TTF / cover.jpg

Video
ID : 1
Format : AVC
Format/Info : Advanced Video Codec
Format profile : [email protected]
Format settings : CABAC / 8 Ref Frames
Format settings, CABAC : Yes
Format settings, Reference fra : 8 frames
Codec ID : V_MPEG4/ISO/AVC
Duration : 1 h 44 min
Bit rate : 10.2 Mb/s
Width : 1 920 pixels
Height : 816 pixels
Display aspect ratio : 2.35:1
Frame rate mode : Constant
Frame rate : 23.976 (24000/1001) FPS
Color space : YUV
Chroma subsampling : 4:2:0
Bit depth : 8 bits
Scan type : Progressive
Bits/(Pixel*Frame) : 0.271
Stream size : 7.43 GiB (86%)
Title : Jay and Silent Bob Strike Back (2001) 1080p 3хUkr/Eng | Sub Eng[Hurtom]
Writing library : core 54
Encoding settings : cabac=1 / ref=5 / deblock=1:-6:-6 / analyse=0x3:0x133 / me=umh / subme=7 / brdo=1 / mixed_ref=1 / me_range=16 / chroma_me=1 / trellis=1 / 8x8dct=1 / cqm=2 / deadzone=21,11 / chroma_qp_offset=0 / threads=3 / nr=0 / decimate=1 / mbaff=0 / bframes=2 / b_pyramid=1 / b_adapt=1 / b_bias=0 / direct=3 / wpredb=1 / bime=1 / keyint=250 / keyint_min=25 / scenecut=40(pre) / rc=2pass / bitrate=10180 / ratetol=1.0 / rceq='blurCplx^(1-qComp)' / qcomp=0.60 / qpmin=10 / qpmax=51 / qpstep=4 / cplxblur=20.0 / qblur=0.5 / ip_ratio=1.40 / pb_ratio=1.30 / zones / aq=1:0.3:15.0
Language : Ukrainian
Default : Yes
Forced : Yes

Audio #1
ID : 2
Format : AC-3
Format/Info : Audio Coding 3
Commercial name : Dolby Digital
Codec ID : A_AC3
Duration : 1 h 44 min
Bit rate mode : Constant
Bit rate : 192 kb/s
Channel(s) : 2 channels
Channel layout : L R
Sampling rate : 48.0 kHz
Frame rate : 31.250 FPS (1536 SPF)
Bit depth : 16 bits
Compression mode : Lossy
Stream size : 143 MiB (2%)
Title : DUB [NLO.TV] 2.0
Language : Ukrainian
Service kind : Complete Main
Default : Yes
Forced : Yes

Audio #2
ID : 3
Format : AC-3
Format/Info : Audio Coding 3
Commercial name : Dolby Digital
Codec ID : A_AC3
Duration : 1 h 44 min
Bit rate mode : Constant
Bit rate : 448 kb/s
Channel(s) : 6 channels
Channel layout : L R C LFE Ls Rs
Sampling rate : 48.0 kHz
Frame rate : 31.250 FPS (1536 SPF)
Bit depth : 16 bits
Compression mode : Lossy
Delay relative to video : 9 ms
Stream size : 336 MiB (4%)
Title : MVO [Omikron] 5.1
Language : Ukrainian
Service kind : Complete Main
Default : No
Forced : No

Audio #3
ID : 4
Format : AC-3
Format/Info : Audio Coding 3
Commercial name : Dolby Digital
Codec ID : A_AC3
Duration : 1 h 44 min
Bit rate mode : Constant
Bit rate : 448 kb/s
Channel(s) : 6 channels
Channel layout : L R C LFE Ls Rs
Sampling rate : 48.0 kHz
Frame rate : 31.250 FPS (1536 SPF)
Bit depth : 16 bits
Compression mode : Lossy
Stream size : 335 MiB (4%)
Title : DVO [НОВИЙ] 5.1
Language : Ukrainian
Service kind : Complete Main
Default : No
Forced : No

Audio #4
ID : 5
Format : AC-3
Format/Info : Audio Coding 3
Commercial name : Dolby Digital
Codec ID : A_AC3
Duration : 1 h 44 min
Bit rate mode : Constant
Bit rate : 448 kb/s
Channel(s) : 6 channels
Channel layout : L R C LFE Ls Rs
Sampling rate : 48.0 kHz
Frame rate : 31.250 FPS (1536 SPF)
Bit depth : 16 bits
Compression mode : Lossy
Stream size : 335 MiB (4%)
Title : Original 5.1
Language : English
Service kind : Complete Main
Default : No
Forced : No

Audio #5
ID : 6
Format : Vorbis
Format settings, Floor : 1
Codec ID : A_VORBIS
Duration : 1 h 44 min
Bit rate mode : Variable
Bit rate : 64.0 kb/s
Channel(s) : 2 channels
Sampling rate : 48.0 kHz
Frame rate : 71.924 FPS (667 SPF)
Compression mode : Lossy
Stream size : 47.4 MiB (1%)
Title : Original VORBIS 2.0 | Commentary Kevin Smith
Writing library : libVorbis 1.0 (UTC 2002-07-17)
Language : English
Default : No
Forced : No

Text #1
ID : 7
Format : UTF-8
Codec ID : S_TEXT/UTF8
Codec ID/Info : UTF-8 Plain Text
Duration : 1 h 43 min
Bit rate : 79 b/s
Count of elements : 1814
Stream size : 60.3 KiB (0%)
Title : Eng (Full)
Language : English
Default : No
Forced : No

Text #2
ID : 8
Format : UTF-8
Codec ID : S_TEXT/UTF8
Codec ID/Info : UTF-8 Plain Text
Duration : 1 h 43 min
Bit rate : 90 b/s
Count of elements : 2224
Stream size : 68.8 KiB (0%)
Title : Eng (SDH)
Language : English
Default : No
Forced : No

Menu
00:00:00.000 : :Chapter 01
00:04:31.560 : :Chapter 02
00:08:05.276 : :Chapter 03
00:12:43.929 : :Chapter 04
00:16:17.184 : :Chapter 05
00:18:12.007 : :Chapter 06
00:22:13.331 : :Chapter 07
00:29:16.003 : :Chapter 08
00:36:09.958 : :Chapter 09
00:43:12.004 : :Chapter 10
00:44:35.421 : :Chapter 11
00:47:05.028 : :Chapter 12
00:51:05.602 : :Chapter 13
00:58:09.900 : :Chapter 14
01:04:34.075 : :Chapter 15
01:08:40.029 : :Chapter 16
01:14:44.768 : :Chapter 17
01:18:04.464 : :Chapter 18
01:22:31.776 : :Chapter 19
01:25:04.303 : :Chapter 20
01:27:15.101 : :Chapter 21
01:30:33.299 : :Chapter 22
01:34:07.596 : :Chapter 23
01:37:38.181 : :Chapter 24
Скріншоти
Джерело: &
Над доріжками працювали: Bohdan237, Sando7, Omikron, karvai0
Особиста оцінка: 10 - без зайвих вагань рекомендую всім!


Авторський реліз (завантажувати можна без реєстрації)
 Трекер:    Зареєстрований   

Завантажити / скачати фільм українською



відео для новачків



 Зареєстрований:   2019-07-26 01:15
 Розмір:   8.6 GB 
 Оцінка фільму:   9.8/10 (Голосів: 12)
   
Ваш часовий пояс: GMT + 2 Години

Нова тема   Відповісти