Чорне Дзеркало (Сезон 1-5) / Black Mirror (Seasons 1-5) (2011-2019) 1080p H.265 Ukr/Eng | Sub Ukr/Eng

Нові коментарі

Нова тема   Відповісти
Автор Повідомлення
Anonymous 







2019-07-26 01:12  
Чорне Дзеркало (Сезон 1-5) / Black Mirror (Seasons 1-5) (2011-2019) 1080p H.265 Ukr/Eng | Sub Ukr/Eng

Чорне Дзеркало (Сезон 1-5) / Black Mirror (Seasons 1-5) (2011-2019) 1080p H.265 Ukr/Eng | Sub Ukr/Eng

,

1. Чорне Дзеркало / Black Mirror (Season 1) (2011) 1080p H.265 Ukr/Eng | Sub Ukr/Eng
Чорне Дзеркало / Black Mirror (Season 1) (2011) 1080p H.265 Ukr/Eng | Sub Ukr/Eng

Чорне Дзеркало (Сезон 1-5) / Black Mirror (Seasons 1-5) (2011-2019) 1080p H.265 Ukr/Eng | Sub Ukr/Eng


Жанр: фантастика, трилер, драма
Країна: Велика Британія
Кінокомпанія: Zeppotron / Channel 4
Режисер: Отто Батурст, Еврос Лін, Браян Велш
Актори: Рорі Кіннер, Ліндсей Дункан, Бріоні Нейлан-Френсіс, Шон Ешборн, Том Ґудман-Гілл, Дональд Самптер, Анна Вілсон-Джонс, Даніель Kayluuya, Джессіка Браун Фіндлі, Руперт Еверетт, Джулія Девіс, Ешлі Томас, Тобі Кеббелл, Джоді Віттакер і Том Каллен та інші

Сюжет:
За останні десять років технології всебічно змінили наше життя, перш ніж ми встигли схаменутися і засумніватися в них. У кожному будинку, на кожному столі, на кожній долоні - плазмовий телевізор, монітор комп'ютера, дисплей смартфона - чорне дзеркало нашого існування в двадцять першому столітті. Наш зв'язок з реальністю змінюється. Ми поклали на вівтар «Google» і «Apple» і поклоняємося їм. «Facebook» алгоритми знають про нас більше, ніж наші власні батьки. У нас є доступ до всієї інформації в світі, але в голові вистачає місця лише для того, щоб сприйняти 140 символів з ​​повідомлення в твіттері. У «Чорному дзеркалі» відображається загальне занепокоєння за наш сучасний світ. Цей захоплюючий міні-серіал складається з трьох незв'язаних між собою епізодів, які наповнені гострою сатирою і зав'язані на параноїдальній залежності людей від сучасних технологій.

Тривалість: 1 серія: ~ 50:00 (цілком серій: 3)
Перелік серій
01. The National Anthem / Національний гімн
02. Fifteen Million Merits / П'ятнадцять мільйонів нагород
03. The Entire History of You / Твоя історія
Якість: (1 та 3 епізод), (2 епізод)
Відео:
кодек: H.265 (HEVC)
розмір кадру: 1920 x 1080
бітрейт: 5 714 кб/с
бітова глибина: 10 біт
Увага! Перед завантаженням переконайтесь, що ваш пристрій відтворення (та/або ПЗ) підтримує H.265 (HEVC)

Аудіо # 1:
мова: українська
переклад: багатоголосий закадровий
кодек: AC-3 2.0
бітрейт: 192 кб/с

Аудіо # 2:
мова: англійська
переклад: оригінал
кодек: 5.1
бітрейт: 1510 кб/с

Субтитри # 1:
мова: українська (Full (by Forestelf, Nobody69, Go2, Netashka)),
тип: програмні (м'які)
формат: *.srt

Субтитри # 2:
мова: англійська (SDH),
тип: програмні (м'які)
формат: *.srt


Info
Код:
General
Unique ID                                : 234519148256639388807880472388720825132 (0xB06EBEB95DC5482F39ADA492F1FA932C)
Complete name                            : Black Mirror (2011) - S01E01 - The National Anthem - 1080p [UKR_ENG] [Hurtom].
Format                                   :
Format version                           : Version 4 / Version 2
File size                                : 2.29 GiB
Duration                                 : 44 min 6 s
Overall bit rate                         : 7 420 kb/s
Movie name                               : Black Mirror (2011) - S01E01 - The National Anthem
Encoded date                             : UTC 2019-06-29 11:29:08
Writing application                      : v20.0.0 ('I Am The Sun') 64-bit
Writing library                          : libebml v1.3.5 + v1.4.8
Cover                                    : Yes
Attachments                              : cover.jpg

Video
ID                                       : 1
Format                                   : HEVC
Format/Info                              : High Efficiency Video Coding
Format profile                           : Main [email protected]@High
Codec ID                                 : V_MPEGH/ISO/HEVC
Duration                                 : 44 min 6 s
Bit rate                                 : 5 714 kb/s
Width                                    : 1 920 pixels
Height                                   : 1 080 pixels
Display aspect ratio                     : 16:9
Frame rate mode                          : Constant
Frame rate                               : 25.000 FPS
Color space                              : YUV
Chroma subsampling                       : 4:2:0
Bit depth                                : 10 bits
Bits/(Pixel*Frame)                       : 0.110
Stream size                              : 1.76 GiB (77%)
Title                                    : Black Mirror (2011) - S01E01 - The National Anthem
Writing library                          : x265 3.0_Au+18-768ab38fd5fd:[Windows][clang 8.0.0][64 bit] 10bit
Encoding settings                        : cpuid=1111039 / frame-threads=9 / numa-pools=8 / wpp / no-pmode / no-pme / no-psnr / no-ssim / log-level=3 / input-csp=1 / input-res=1920x1080 / interlace=0 / total-frames=0 / level-idc=51 / high-tier=1 / uhd-bd=0 / ref=5 / allow-non-conformance / no-repeat-headers / annexb / no-aud / no-hrd / info / hash=0 / no-temporal-layers / open-gop / min-keyint=23 / keyint=250 / gop-lookahead=0 / bframes=8 / b-adapt=2 / b-pyramid / bframe-bias=0 / rc-lookahead=20 / lookahead-slices=6 / scenecut=40 / radl=0 / no-splice / no-intra-refresh / ctu=64 / min-cu-size=8 / rect / amp / max-tu-size=32 / tu-inter-depth=4 / tu-intra-depth=4 / limit-tu=0 / rdoq-level=2 / dynamic-rd=0.00 / no-ssim-rd / signhide / no-tskip / nr-intra=0 / nr-inter=0 / no-constrained-intra / no-strong-intra-smoothing / max-merge=2 / limit-refs=3 / no-limit-modes / me=3 / subme=7 / merange=57 / temporal-mvp / weightp / weightb / no-analyze-src-pics / deblock=-3:-3 / no-sao / no-sao-non-deblock / rd=6 / no-early-skip / rskip / no-fast-intra / no-tskip-fast / no-cu-lossless / no-b-intra / no-splitrd-skip / rdpenalty=0 / psy-rd=2.00 / psy-rdoq=1.00 / no-rd-refine / no-lossless / cbqpoffs=0 / crqpoffs=0 / rc=crf / crf=18.0 / qcomp=0.60 / qpstep=4 / stats-write=0 / stats-read=0 / vbv-maxrate=50000 / vbv-bufsize=50000 / vbv-init=0.9 / crf-max=0.0 / crf-min=0.0 / ipratio=1.40 / pbratio=1.30 / aq-mode=1 / aq-strength=1.00 / cutree / zone-count=0 / no-strict-cbr / qg-size=32 / no-rc-grain / qpmax=69 / qpmin=0 / no-const-vbv / sar=1 / overscan=0 / videoformat=5 / range=0 / colorprim=2 / transfer=2 / colormatrix=2 / chromaloc=0 / display-window=0 / max-cll=0,0 / min-luma=0 / max-luma=1023 / log2-max-poc-lsb=8 / vui-timing-info / vui-hrd-info / slices=1 / no-opt-qp-pps / no-opt-ref-list-length-pps / no-multi-pass-opt-rps / scenecut-bias=0.05 / no-opt-cu-delta-qp / no-aq-motion / no-hdr / no-hdr-opt / no-dhdr10-opt / no-idr-recovery-sei / analysis-reuse-level=5 / scale-factor=0 / refine-intra=0 / refine-inter=0 / refine-mv=0 / refine-ctu-distortion=0 / no-limit-sao / ctu-info=0 / no-lowpass-dct / refine-analysis-type=-941617280 / copy-pic=1 / max-ausize-factor=1.0 / no-dynamic-refine / no-single-sei / no-hevc-aq / no-svt / qp-adaptation-range=1.00
Language                                 : English
Default                                  : Yes
Forced                                   : No
Color range                              : Limited

Audio #1
ID                                       : 2
Format                                   : AC-3
Format/Info                              : Audio Coding 3
Codec ID                                 : A_AC3
Duration                                 : 44 min 6 s
Bit rate mode                            : Constant
Bit rate                                 : 192 kb/s
Channel(s)                               : 2 channels
Channel positions                        : Front: L R
Sampling rate                            : 48.0 kHz
Frame rate                               : 31.250 FPS (1536 SPF)
Bit depth                                : 16 bits
Compression mode                         : Lossy
Stream size                              : 60.6 MiB (3%)
Title                                    : БЗ - Kanal Ukraina - / 2.0 / 48 kHz / 192 kbps
Language                                 : Ukrainian
Service kind                             : Complete Main
Default                                  : Yes
Forced                                   : Yes

Audio #2
ID                                       : 3
Format                                   :
Format/Info                              : Digital Theater Systems
Codec ID                                 : A_DTS
Duration                                 : 44 min 6 s
Bit rate mode                            : Constant
Bit rate                                 : 1 509 kb/s
Channel(s)                               : 6 channels
Channel positions                        : Front: L C R, Side: L R, LFE
Sampling rate                            : 48.0 kHz
Frame rate                               : 93.750 FPS (512 SPF)
Bit depth                                : 16 bits
Compression mode                         : Lossy
Stream size                              : 476 MiB (20%)
Title                                    : Original - / 5.1 / 48 kHz / 1509 kbps / 16-bit
Language                                 : English
Default                                  : No
Forced                                   : No

Text #1
ID                                       : 4
Format                                   : UTF-8
Codec ID                                 : S_TEXT/UTF8
Codec ID/Info                            : UTF-8 Plain Text
Duration                                 : 42 min 38 s
Bit rate                                 : 120 b/s
Count of elements                        : 617
Stream size                              : 37.5 KiB (0%)
Title                                    : Full (by Forestelf, Nobody69, Go2, Netashka)
Language                                 : Ukrainian
Default                                  : Yes
Forced                                   : No

Text #2
ID                                       : 5
Format                                   : UTF-8
Codec ID                                 : S_TEXT/UTF8
Codec ID/Info                            : UTF-8 Plain Text
Duration                                 : 43 min 2 s
Bit rate                                 : 66 b/s
Count of elements                        : 674
Stream size                              : 21.1 KiB (0%)
Title                                    : SDH
Language                                 : English
Default                                  : No
Forced                                   : No

Menu
00:00:00.000                             : en:Chapter 1
00:01:19.800                             : en:Chapter 2
00:11:27.280                             : en:Chapter 3
00:19:18.400                             : en:Chapter 4
00:29:18.720                             : en:Chapter 5
00:42:51.800                             : en:Chapter 6
Світлини





2. Чорне Дзеркало / Black Mirror (Season 2) (2013) 1080p H.265 Ukr/Eng | Sub Ukr/Eng
Чорне Дзеркало / Black Mirror (Season 2) (2013) 1080p H.265 Ukr/Eng | Sub Ukr/Eng

Чорне Дзеркало (Сезон 1-5) / Black Mirror (Seasons 1-5) (2011-2019) 1080p H.265 Ukr/Eng | Sub Ukr/Eng


Жанр: фантастика, трилер, драма
Країна: Велика Британія
Кінокомпанія: Zeppotron / Channel 4
Режисер: Отто Батурст, Еврос Лін, Браян Велш
Актори: Рорі Кіннер, Ліндсей Дункан, Бріоні Нейлан-Френсіс, Шон Ешборн, Том Ґудман-Гілл, Дональд Самптер, Анна Вілсон-Джонс, Даніель Kayluuya, Джессіка Браун Фіндлі, Руперт Еверетт, Джулія Девіс, Ешлі Томас, Тобі Кеббелл, Джоді Віттакер і Том Каллен та інші

Сюжет:
Молода пара, Марта і Еш, переїжджає жити за місто. Еш – активний користувач соціальних мереж: він постійно чекіниться, викладає фотографії і оновлює пости. Наступного дня після переїзду Еш гине. Марта перебуває у відчаї, і на похоронах подруга розповідає їй про новий онлайн сервіс, що дозволяє людям залишатися в контакті з померлими. Сервіс використовує онлайн-комунікації та профілі в соціальних медіа, згуртовує інформацію і створює віртуальний аналог користувача. Сходячи з глузду від туги, Марта вирішує зареєструватися в програмі і починає спілкуватися з Ешем по e-mail, потім по телефону, завантажуючи в базу даних сервера його відео-і аудіофайли. Тепер вона розмовляє з Ешем без зупину і сама не помічає, як перестає жити реальним життям. Раптово Марта дізнається про нову функцію цієї програми...

Тривалість: 1 серія: ~ 50:00 (цілком серій: 4)
Перелік серій

00. White Christmas (special episode) / Біле Різдво (спецепізод)
01. Be Right Back / Скоро повернусь
02. White Bear / Білий ведмідь
03. The Waldo Moment / Момент для Уолдо
Якість:
Відео:
кодек: H.265 (HEVC)
розмір кадру: 1920 x 1080
бітрейт: 8 920 кб/с
бітова глибина: 10 біт
Увага! Перед завантаженням переконайтесь, що ваш пристрій відтворення (та/або ПЗ) підтримує H.265 (HEVC)

Аудіо # 1: (1, 2 та 3 епізоди)
мова: українська
переклад: багатоголосий закадровий
кодек: AC-3 2.0
бітрейт: 192 кб/с

Аудіо # 2: (1, 2 та 3 епізоди)
мова: англійська
переклад: оригінал
кодек: 5.1
бітрейт: 1509 кб/с

Аудіо # 1: (0 епізод)
мова: українська
переклад: багатоголосий закадровий | студія "НеЗупиняйПродакшн"
кодек: AC-3 2.0
бітрейт: 384 кб/с

Аудіо # 2: (0 епізод)
мова: українська
переклад: багатоголосий закадровий | Melodic Voice Studio
кодек: 2.0
бітрейт: 506 кб/с

Аудіо # 3: (0 епізод)
мова: англійська
переклад: оригінал
кодек: E- 2.0
бітрейт: 224 кб/с

Субтитри #1: (SDH) (1, 2 та 3 епізоди)
мова: англійська,
тип: програмні (м'які)
формат: *.srt

Субтитри #1: (Forced, Full (by Tesu)) (0 епізод)
мова: українська
тип: програмні (м'які)
формат: *.srt

Субтитри #2: (SDH) (0 епізод)
мова: англійська,
тип: програмні (м'які)
формат: *.srt


Info
Код:
General
Unique ID                                : 12606290784478385018952225159895781558 (0x97BE21F5B066B15D7B402F4136F10B6)
Complete name                            : Black Mirror (2013) - S02E02 - White Bear - 1080p [UKR_ENG] [Hurtom].
Format                                   :
Format version                           : Version 4 / Version 2
File size                                : 3.13 GiB
Duration                                 : 42 min 6 s
Overall bit rate                         : 10.6 Mb/s
Movie name                               : Black Mirror (2013) - S02E02 - White Bear
Encoded date                             : UTC 2019-06-29 11:36:54
Writing application                      : v20.0.0 ('I Am The Sun') 64-bit
Writing library                          : libebml v1.3.5 + v1.4.8
Cover                                    : Yes
Attachments                              : cover.jpg

Video
ID                                       : 1
Format                                   : HEVC
Format/Info                              : High Efficiency Video Coding
Format profile                           : Main [email protected]@High
Codec ID                                 : V_MPEGH/ISO/HEVC
Duration                                 : 42 min 6 s
Bit rate                                 : 8 920 kb/s
Width                                    : 1 920 pixels
Height                                   : 1 080 pixels
Display aspect ratio                     : 16:9
Frame rate mode                          : Constant
Frame rate                               : 50.000 FPS
Color space                              : YUV
Chroma subsampling                       : 4:2:0
Bit depth                                : 10 bits
Bits/(Pixel*Frame)                       : 0.086
Stream size                              : 2.62 GiB (84%)
Title                                    : Black Mirror (2013) - S02E02 - White Bear
Writing library                          : x265 2.9+9-f74003e88622:[Windows][GCC 8.2.0][64 bit] 10bit
Encoding settings                        : cpuid=1111039 / frame-threads=9 / numa-pools=8 / wpp / no-pmode / no-pme / no-psnr / no-ssim / log-level=3 / input-csp=1 / input-res=1920x1080 / interlace=0 / total-frames=0 / level-idc=51 / high-tier=1 / uhd-bd=0 / ref=5 / allow-non-conformance / no-repeat-headers / annexb / no-aud / no-hrd / info / hash=0 / no-temporal-layers / open-gop / min-keyint=23 / keyint=250 / gop-lookahead=0 / bframes=8 / b-adapt=2 / b-pyramid / bframe-bias=0 / rc-lookahead=40 / lookahead-slices=6 / scenecut=40 / radl=0 / no-intra-refresh / ctu=64 / min-cu-size=8 / rect / amp / max-tu-size=32 / tu-inter-depth=4 / tu-intra-depth=4 / limit-tu=0 / rdoq-level=2 / dynamic-rd=0.00 / no-ssim-rd / signhide / no-tskip / nr-intra=0 / nr-inter=0 / no-constrained-intra / no-strong-intra-smoothing / max-merge=2 / limit-refs=3 / no-limit-modes / me=3 / subme=7 / merange=57 / temporal-mvp / weightp / weightb / no-analyze-src-pics / deblock=-3:-3 / no-sao / no-sao-non-deblock / rd=6 / no-early-skip / rskip / no-fast-intra / no-tskip-fast / no-cu-lossless / no-b-intra / no-splitrd-skip / rdpenalty=0 / psy-rd=2.00 / psy-rdoq=1.00 / no-rd-refine / no-lossless / cbqpoffs=0 / crqpoffs=0 / rc=crf / crf=18.0 / qcomp=0.65 / qpstep=2 / stats-write=0 / stats-read=0 / vbv-maxrate=50000 / vbv-bufsize=50000 / vbv-init=0.9 / crf-max=0.0 / crf-min=0.0 / ipratio=1.40 / pbratio=1.30 / aq-mode=1 / aq-strength=1.00 / cutree / zone-count=0 / no-strict-cbr / qg-size=32 / no-rc-grain / qpmax=69 / qpmin=0 / no-const-vbv / sar=1 / overscan=0 / videoformat=5 / range=0 / colorprim=2 / transfer=2 / colormatrix=2 / chromaloc=0 / display-window=0 / max-cll=0,0 / min-luma=0 / max-luma=1023 / log2-max-poc-lsb=8 / vui-timing-info / vui-hrd-info / slices=1 / no-opt-qp-pps / no-opt-ref-list-length-pps / no-multi-pass-opt-rps / scenecut-bias=0.05 / no-opt-cu-delta-qp / no-aq-motion / no-hdr / no-hdr-opt / no-dhdr10-opt / no-idr-recovery-sei / analysis-reuse-level=5 / scale-factor=0 / refine-intra=0 / refine-inter=0 / refine-mv=0 / no-limit-sao / ctu-info=0 / no-lowpass-dct / refine-mv-type=0 / copy-pic=1 / max-ausize-factor=1.0 / no-dynamic-refine / no-single-sei
Language                                 : English
Default                                  : Yes
Forced                                   : No
Color range                              : Limited

Audio #1
ID                                       : 2
Format                                   : AC-3
Format/Info                              : Audio Coding 3
Codec ID                                 : A_AC3
Duration                                 : 42 min 5 s
Bit rate mode                            : Constant
Bit rate                                 : 192 kb/s
Channel(s)                               : 2 channels
Channel positions                        : Front: L R
Sampling rate                            : 48.0 kHz
Frame rate                               : 31.250 FPS (1536 SPF)
Bit depth                                : 16 bits
Compression mode                         : Lossy
Stream size                              : 57.8 MiB (2%)
Title                                    : БЗ - Kanal Ukraina - / 2.0 / 48 kHz / 192 kbps
Language                                 : Ukrainian
Service kind                             : Complete Main
Default                                  : Yes
Forced                                   : Yes

Audio #2
ID                                       : 3
Format                                   :
Format/Info                              : Digital Theater Systems
Codec ID                                 : A_DTS
Duration                                 : 42 min 6 s
Bit rate mode                            : Constant
Bit rate                                 : 1 509 kb/s
Channel(s)                               : 6 channels
Channel positions                        : Front: L C R, Side: L R, LFE
Sampling rate                            : 48.0 kHz
Frame rate                               : 93.750 FPS (512 SPF)
Bit depth                                : 16 bits
Compression mode                         : Lossy
Stream size                              : 455 MiB (14%)
Title                                    : Original - / 5.1 / 48 kHz / 1509 kbps / 16-bit
Language                                 : English
Default                                  : No
Forced                                   : No

Text
ID                                       : 4
Format                                   : UTF-8
Codec ID                                 : S_TEXT/UTF8
Codec ID/Info                            : UTF-8 Plain Text
Duration                                 : 39 min 43 s
Bit rate                                 : 49 b/s
Count of elements                        : 526
Stream size                              : 14.5 KiB (0%)
Title                                    : SDH
Language                                 : English
Default                                  : Yes
Forced                                   : No

Menu
00:00:00.000                             : :Chapter 1
00:10:42.280                             : :Chapter 2
00:22:46.240                             : :Chapter 3
00:37:44.600                             : :Chapter 4
Світлини
3. Чорне Дзеркало / Black Mirror (Season 3) (2016) 1080p H.265 Ukr/Eng | Sub Ukr/Eng
Чорне Дзеркало / Black Mirror (Season 3) (2016) 1080p H.265 Ukr/Eng | Sub Ukr/Eng

Чорне Дзеркало (Сезон 1-5) / Black Mirror (Seasons 1-5) (2011-2019) 1080p H.265 Ukr/Eng | Sub Ukr/Eng


Жанр: фантастика, трилер, драма
Країна: Велика Британія, США
Кінокомпанія: Zeppotron, Channel 4, Netflix
Режисер: Джо Райт, Ден Трахтенберг, Джеймс Воткінс, Овен Гарріс, Якоб Вербрюгген, Джеймс Гоуз
Актори: Брайс Даллас Говард, Еліс Ів, Джеймс Нортон, Ваятт Расселл, Ганна Джон-Кеймен, Вунмі Мосаку, Алекс Лотер, Джером Флінн, Гугу Мбата-Роу, Маккензі Девіс, Малахій Кірбі, Медлін Брюер, Аріана Лабед, Келлі Макдональд, Фей Марсі, Бенедикт Вонг та інші.

Сюжет:
Британський фантастичний телесеріал, створений за сценарієм Чарлі Брукера. Серії не пов'язані між собою ні сюжетом, ні акторами, ні часом або місцем. За словами Брукера, всі сюжети об'єднує лише сатира на той образ життя, що поширений в сучасному суспільстві. Наскрізна тема - вплив інформаційних технологій на людські відносини.

Тривалість: 1 серія: ~ 50:00 (цілком серій: 6)
Перелік серій

01. Nosedive / Вільне падіння
02. Playtest / Тестування гри
03. Shut Up and Dance / Заціпся та танцюй
04. San Junipero / Сан Джуніперо
05. Men Against Fire / Люди проти Вогню
06. Hated in the Nation / Ненависть народу
Якість:
Відео:
кодек: H.265 (HEVC)
розмір кадру: 1920 x 1012
бітрейт: 3 365 кб/с
бітова глибина: 10 біт
Увага! Перед завантаженням переконайтесь, що ваш пристрій відтворення (та/або ПЗ) підтримує H.265 (HEVC)

Аудіо # 1:
мова: українська
переклад: багатоголосий закадровий | MelodicVoiceStudio
кодек: AC-3 5.1
бітрейт: 640 кб/с

Аудіо # 2:
мова: англійська
переклад: оригінал
кодек: 5.1
бітрейт: 1510 кб/с

Субтитри # 1:
мова: українська (Forced),
тип: програмні (м'які)
формат: *.srt

Субтитри # 2:
мова: українська (Full),
тип: програмні (м'які)
формат: *.srt

Субтитри # 3:
мова: англійська (SDH),
тип: програмні (м'які)
формат: *.srt


Info
Код:
General
Unique ID                                : 192513739365230544054199522209610854382 (0x90D4CC2B400D5190AC8921590DBFEFEE)
Complete name                            : Black Mirror (2016) - S03E01 - Nosedive - 1080p H.265 [UKR_ENG] [Hurtom].
Format                                   :
Format version                           : Version 4 / Version 2
File size                                : 2.42 GiB
Duration                                 : 1 h 2 min
Overall bit rate                         : 5 517 kb/s
Movie name                               : Black Mirror (2016) - S03E01 - Nosedive
Encoded date                             : UTC 2019-05-05 22:05:18
Writing application                      : v20.0.0 ('I Am The Sun') 64-bit
Writing library                          : libebml v1.3.5 + v1.4.8
Cover                                    : Yes
Attachments                              : Cover.jpg

Video
ID                                       : 1
Format                                   : HEVC
Format/Info                              : High Efficiency Video Coding
Format profile                           : Main [email protected]@High
Codec ID                                 : V_MPEGH/ISO/HEVC
Duration                                 : 1 h 2 min
Bit rate                                 : 3 365 kb/s
Width                                    : 1 920 pixels
Height                                   : 1 012 pixels
Display aspect ratio                     : 1.897
Frame rate mode                          : Constant
Frame rate                               : 25.000 FPS
Color space                              : YUV
Chroma subsampling                       : 4:2:0
Bit depth                                : 10 bits
Bits/(Pixel*Frame)                       : 0.069
Stream size                              : 1.47 GiB (61%)
Title                                    : Black Mirror (2016) - S03E01 - Nosedive
Writing library                          : x265 3.0_Au+18-768ab38fd5fd:[Windows][clang 8.0.0][64 bit] 10bit
Encoding settings                        : cpuid=1111039 / frame-threads=9 / numa-pools=8 / wpp / no-pmode / no-pme / no-psnr / no-ssim / log-level=3 / input-csp=1 / input-res=1920x1012 / interlace=0 / total-frames=0 / level-idc=51 / high-tier=1 / uhd-bd=0 / ref=5 / allow-non-conformance / no-repeat-headers / annexb / no-aud / no-hrd / info / hash=0 / no-temporal-layers / open-gop / min-keyint=23 / keyint=250 / gop-lookahead=0 / bframes=8 / b-adapt=2 / b-pyramid / bframe-bias=0 / rc-lookahead=20 / lookahead-slices=6 / scenecut=40 / radl=0 / no-splice / no-intra-refresh / ctu=64 / min-cu-size=8 / rect / amp / max-tu-size=32 / tu-inter-depth=4 / tu-intra-depth=4 / limit-tu=0 / rdoq-level=2 / dynamic-rd=0.00 / no-ssim-rd / signhide / no-tskip / nr-intra=0 / nr-inter=0 / no-constrained-intra / no-strong-intra-smoothing / max-merge=2 / limit-refs=3 / no-limit-modes / me=3 / subme=7 / merange=57 / temporal-mvp / weightp / weightb / no-analyze-src-pics / deblock=-3:-3 / no-sao / no-sao-non-deblock / rd=6 / no-early-skip / rskip / no-fast-intra / no-tskip-fast / no-cu-lossless / no-b-intra / no-splitrd-skip / rdpenalty=0 / psy-rd=2.00 / psy-rdoq=1.00 / no-rd-refine / no-lossless / cbqpoffs=0 / crqpoffs=0 / rc=crf / crf=18.0 / qcomp=0.60 / qpstep=4 / stats-write=0 / stats-read=0 / vbv-maxrate=50000 / vbv-bufsize=50000 / vbv-init=0.9 / crf-max=0.0 / crf-min=0.0 / ipratio=1.40 / pbratio=1.30 / aq-mode=1 / aq-strength=1.00 / cutree / zone-count=0 / no-strict-cbr / qg-size=32 / no-rc-grain / qpmax=69 / qpmin=0 / no-const-vbv / sar=1 / overscan=0 / videoformat=5 / range=0 / colorprim=1 / transfer=1 / colormatrix=1 / chromaloc=0 / display-window=0 / max-cll=0,0 / min-luma=0 / max-luma=1023 / log2-max-poc-lsb=8 / vui-timing-info / vui-hrd-info / slices=1 / no-opt-qp-pps / no-opt-ref-list-length-pps / no-multi-pass-opt-rps / scenecut-bias=0.05 / no-opt-cu-delta-qp / no-aq-motion / no-hdr / no-hdr-opt / no-dhdr10-opt / no-idr-recovery-sei / analysis-reuse-level=5 / scale-factor=0 / refine-intra=0 / refine-inter=0 / refine-mv=0 / refine-ctu-distortion=0 / no-limit-sao / ctu-info=0 / no-lowpass-dct / refine-analysis-type=-578908241 / copy-pic=1 / max-ausize-factor=1.0 / no-dynamic-refine / no-single-sei / no-hevc-aq / no-svt / qp-adaptation-range=1.00
Language                                 : English
Default                                  : Yes
Forced                                   : No
Color range                              : Limited
Color primaries                          : BT.709
Transfer characteristics                 : BT.709
Matrix coefficients                      : BT.709

Audio #1
ID                                       : 2
Format                                   : AC-3
Format/Info                              : Audio Coding 3
Codec ID                                 : A_AC3
Duration                                 : 1 h 2 min
Bit rate mode                            : Constant
Bit rate                                 : 640 kb/s
Channel(s)                               : 6 channels
Channel positions                        : Front: L C R, Side: L R, LFE
Sampling rate                            : 48.0 kHz
Frame rate                               : 31.250 FPS (1536 SPF)
Bit depth                                : 16 bits
Compression mode                         : Lossy
Stream size                              : 287 MiB (12%)
Title                                    : БЗ - Melodic Voice Studio
Language                                 : Ukrainian
Service kind                             : Complete Main
Default                                  : Yes
Forced                                   : Yes

Audio #2
ID                                       : 3
Format                                   :
Format/Info                              : Digital Theater Systems
Codec ID                                 : A_DTS
Duration                                 : 1 h 2 min
Bit rate mode                            : Constant
Bit rate                                 : 1 509 kb/s
Channel(s)                               : 6 channels
Channel positions                        : Front: L C R, Side: L R, LFE
Sampling rate                            : 48.0 kHz
Frame rate                               : 93.750 FPS (512 SPF)
Bit depth                                : 24 bits
Compression mode                         : Lossy
Stream size                              : 677 MiB (27%)
Title                                    : Original
Language                                 : English
Default                                  : No
Forced                                   : No

Text #1
ID                                       : 4
Format                                   : UTF-8
Codec ID                                 : S_TEXT/UTF8
Codec ID/Info                            : UTF-8 Plain Text
Duration                                 : 1 h 1 min
Bit rate                                 : 2 b/s
Count of elements                        : 19
Stream size                              : 1.15 KiB (0%)
Title                                    : Forced
Language                                 : Ukrainian
Default                                  : Yes
Forced                                   : Yes

Text #2
ID                                       : 5
Format                                   : UTF-8
Codec ID                                 : S_TEXT/UTF8
Codec ID/Info                            : UTF-8 Plain Text
Duration                                 : 1 h 1 min
Bit rate                                 : 96 b/s
Count of elements                        : 700
Stream size                              : 43.5 KiB (0%)
Title                                    : Full
Language                                 : Ukrainian
Default                                  : No
Forced                                   : No

Text #3
ID                                       : 6
Format                                   : UTF-8
Codec ID                                 : S_TEXT/UTF8
Codec ID/Info                            : UTF-8 Plain Text
Duration                                 : 1 h 1 min
Bit rate                                 : 64 b/s
Count of elements                        : 851
Stream size                              : 29.1 KiB (0%)
Title                                    : SDH
Language                                 : English
Default                                  : No
Forced                                   : No

Menu
00:00:00.000                             : en:00:00:00.000
00:16:35.760                             : en:00:16:35.760
00:30:15.320                             : en:00:30:15.320
00:45:22.840                             : en:00:45:22.840
01:01:31.600                             : en:01:01:31.600
Світлини
4. Чорне Дзеркало / Black Mirror (Season 4) (2017) 1080p H.265 Ukr/Eng | Sub Ukr/Eng
Чорне Дзеркало / Black Mirror (Season 4) (2017) 1080p H.265 Ukr/Eng | Sub Ukr/Eng

Чорне Дзеркало (Сезон 1-5) / Black Mirror (Seasons 1-5) (2011-2019) 1080p H.265 Ukr/Eng | Sub Ukr/Eng


Жанр: фантастика, трилер, драма
Країна: Велика Британія, США
Кінокомпанія: Zeppotron, Channel 4, Netflix
Режисер: Чарлі Брукер
Актори: Джессі Племонс, Розмарі Девітт, Андреа Райзборо, Джорджина Кемпбелл, Максін Пік, Дуґлас Годж та інші.

Сюжет:
Британський фантастичний телесеріал, створений за сценарієм Чарлі Брукера. Серії не пов'язані між собою ні сюжетом, ні акторами, ні часом або місцем. За словами Брукера, всі сюжети об'єднує лише сатира на той образ життя, що поширений в сучасному суспільстві. Наскрізна тема - вплив інформаційних технологій на людські відносини.

Тривалість: 1 серія: ~ 60:00 (цілком серій: 6)
Перелік серій

01. USS Callister / Космічний човен Калістер
02. Arkangel / Аркангел
03. Crocodile / Крокодил
04. Hang the DJ / Повісь ді-джея
05. Metalhead / Металіст
06. Black Museum / Чорний музей
Якість:
Відео:
кодек: H.265 (HEVC)
розмір кадру: 1920 x 872
бітрейт: 2 278 кб/с
бітова глибина: 10 біт
Увага! Перед завантаженням переконайтесь, що ваш пристрій відтворення (та/або ПЗ) підтримує H.265 (HEVC)

Аудіо # 1:
мова: українська
переклад: одноголосий закадровий | Дмитро Кравченко (Done56)
кодек: 5.1
бітрейт: 529 кб/с

Аудіо # 2:
мова: англійська
переклад: оригінал
кодек: 5.1
бітрейт: 1510 кб/с

Субтитри # 1:
мова: українська (Full),
тип: програмні (м'які)
формат: *.srt

Субтитри # 2:
мова: англійська (SDH),
тип: програмні (м'які)
формат: *.srt


Info
Код:
General
Unique ID                                : 161261999319758821001592296709251854884 (0x7951EE6C2D9C08A5A3031FE0391AF224)
Complete name                            : Black Mirror (2017) - S04E04 - Hang the DJ - 1080p H.265 [UKR_ENG] [Hurtom].
Format                                   :
Format version                           : Version 4 / Version 2
File size                                : 1.56 GiB
Duration                                 : 51 min 57 s
Overall bit rate                         : 4 304 kb/s
Movie name                               : Black Mirror (2017) - S04E04 - Hang the DJ
Encoded date                             : UTC 2019-06-24 14:22:10
Writing application                      : v20.0.0 ('I Am The Sun') 64-bit
Writing library                          : libebml v1.3.5 + v1.4.8
Cover                                    : Yes
Attachments                              : Cover.jpg

Video
ID                                       : 1
Format                                   : HEVC
Format/Info                              : High Efficiency Video Coding
Format profile                           : Main [email protected]@High
Codec ID                                 : V_MPEGH/ISO/HEVC
Duration                                 : 51 min 56 s
Bit rate                                 : 2 278 kb/s
Width                                    : 1 920 pixels
Height                                   : 872 pixels
Display aspect ratio                     : 2.2:1
Frame rate mode                          : Constant
Frame rate                               : 25.000 FPS
Color space                              : YUV
Chroma subsampling                       : 4:2:0
Bit depth                                : 10 bits
Bits/(Pixel*Frame)                       : 0.054
Stream size                              : 846 MiB (53%)
Title                                    : Black Mirror (2017) - S04E04 - Hang the DJ
Writing library                          : x265 3.0_Au+16-0018ca1ca42f:[Windows][clang 8.0.0][64 bit] 10bit
Encoding settings                        : cpuid=1111039 / frame-threads=9 / numa-pools=8 / wpp / no-pmode / no-pme / no-psnr / no-ssim / log-level=3 / input-csp=1 / input-res=1920x872 / interlace=0 / total-frames=0 / level-idc=51 / high-tier=1 / uhd-bd=0 / ref=5 / allow-non-conformance / no-repeat-headers / annexb / no-aud / no-hrd / info / hash=0 / no-temporal-layers / open-gop / min-keyint=23 / keyint=250 / gop-lookahead=0 / bframes=8 / b-adapt=2 / b-pyramid / bframe-bias=0 / rc-lookahead=20 / lookahead-slices=5 / scenecut=40 / radl=0 / no-splice / no-intra-refresh / ctu=64 / min-cu-size=8 / rect / amp / max-tu-size=32 / tu-inter-depth=4 / tu-intra-depth=4 / limit-tu=0 / rdoq-level=2 / dynamic-rd=0.00 / no-ssim-rd / signhide / no-tskip / nr-intra=0 / nr-inter=0 / no-constrained-intra / no-strong-intra-smoothing / max-merge=2 / limit-refs=3 / no-limit-modes / me=3 / subme=7 / merange=57 / temporal-mvp / weightp / weightb / no-analyze-src-pics / deblock=-3:-3 / no-sao / no-sao-non-deblock / rd=6 / no-early-skip / rskip / no-fast-intra / no-tskip-fast / no-cu-lossless / no-b-intra / no-splitrd-skip / rdpenalty=0 / psy-rd=2.00 / psy-rdoq=1.00 / no-rd-refine / no-lossless / cbqpoffs=0 / crqpoffs=0 / rc=crf / crf=18.0 / qcomp=0.60 / qpstep=4 / stats-write=0 / stats-read=0 / vbv-maxrate=50000 / vbv-bufsize=50000 / vbv-init=0.9 / crf-max=0.0 / crf-min=0.0 / ipratio=1.40 / pbratio=1.30 / aq-mode=1 / aq-strength=1.00 / cutree / zone-count=0 / no-strict-cbr / qg-size=32 / no-rc-grain / qpmax=69 / qpmin=0 / no-const-vbv / sar=1 / overscan=0 / videoformat=5 / range=0 / colorprim=2 / transfer=2 / colormatrix=2 / chromaloc=0 / display-window=0 / max-cll=0,0 / min-luma=0 / max-luma=1023 / log2-max-poc-lsb=8 / vui-timing-info / vui-hrd-info / slices=1 / no-opt-qp-pps / no-opt-ref-list-length-pps / no-multi-pass-opt-rps / scenecut-bias=0.05 / no-opt-cu-delta-qp / no-aq-motion / no-hdr / no-hdr-opt / no-dhdr10-opt / no-idr-recovery-sei / analysis-reuse-level=5 / scale-factor=0 / refine-intra=0 / refine-inter=0 / refine-mv=0 / refine-ctu-distortion=0 / no-limit-sao / ctu-info=0 / no-lowpass-dct / refine-analysis-type=17 / copy-pic=1 / max-ausize-factor=1.0 / no-dynamic-refine / no-single-sei / no-hevc-aq / no-svt / qp-adaptation-range=1.00
Language                                 : English
Default                                  : Yes
Forced                                   : No
Color range                              : Limited

Audio #1
ID                                       : 2
Format                                   :
Format/Info                              : Advanced Audio Codec
Format profile                           : LC
Codec ID                                 : A_AAC-2
Duration                                 : 51 min 57 s
Bit rate                                 : 529 kb/s
Channel(s)                               : 6 channels
Channel positions                        : Front: L C R, Side: L R, LFE
Sampling rate                            : 48.0 kHz
Frame rate                               : 46.875 FPS (1024 SPF)
Compression mode                         : Lossy
Stream size                              : 194 MiB (12%)
Title                                    : ОЗ - Дмитро Кравченко (Done56)
Language                                 : Ukrainian
Default                                  : Yes
Forced                                   : Yes

Audio #2
ID                                       : 3
Format                                   :
Format/Info                              : Digital Theater Systems
Codec ID                                 : A_DTS
Duration                                 : 51 min 27 s
Bit rate mode                            : Constant
Bit rate                                 : 1 509 kb/s
Channel(s)                               : 6 channels
Channel positions                        : Front: L C R, Side: L R, LFE
Sampling rate                            : 48.0 kHz
Frame rate                               : 93.750 FPS (512 SPF)
Bit depth                                : 24 bits
Compression mode                         : Lossy
Stream size                              : 555 MiB (35%)
Title                                    : Original
Language                                 : English
Default                                  : No
Forced                                   : No

Text #1
ID                                       : 4
Format                                   : UTF-8
Codec ID                                 : S_TEXT/UTF8
Codec ID/Info                            : UTF-8 Plain Text
Duration                                 : 46 min 2 s
Bit rate                                 : 74 b/s
Count of elements                        : 459
Stream size                              : 25.2 KiB (0%)
Title                                    : Full
Language                                 : Ukrainian
Default                                  : Yes
Forced                                   : No

Text #2
ID                                       : 5
Format                                   : UTF-8
Codec ID                                 : S_TEXT/UTF8
Codec ID/Info                            : UTF-8 Plain Text
Duration                                 : 50 min 48 s
Bit rate                                 : 58 b/s
Count of elements                        : 621
Stream size                              : 21.6 KiB (0%)
Title                                    : SDH
Language                                 : English
Default                                  : No
Forced                                   : No
Світлини
5. Чорне Дзеркало / Black Mirror (Season 5) (2019) 1080p H.265 2xUkr/Eng | Sub Eng
Чорне Дзеркало / Black Mirror (Season 5) (2019) 1080p H.265 2xUkr/Eng | Sub Eng

Чорне Дзеркало (Сезон 1-5) / Black Mirror (Seasons 1-5) (2011-2019) 1080p H.265 Ukr/Eng | Sub Ukr/Eng


Жанр: драма, фантастика, трилер
Країна: Великобританія
Кінокомпанія: Zeppotron, Channel 4, Netflix
Актори: Джессі Племонс, Крістін Міліоті, Джиммі Сімпсон та інші

Сюжет:
Британський фантастичний телесеріал, створений за сценарієм Чарлі Брукера. Серії не пов'язані між собою ні сюжетом, ні акторами, ні часом або місцем. За словами Брукера, всі сюжети об'єднує лише сатира на той образ життя, що поширений в сучасному суспільстві. Наскрізна тема - вплив інформаційних технологій на людські відносини.

Тривалість: 1 серія: ~ 60:00 (цілком серій: 3)
Перелік серій
01. Striking Vipers / Гадюки Атакують
02. Smithereens / Уламки
03. Rachel, Jack and Ashley Too / Рейчел, Джек та Ешлі два
Якість:
Відео:
кодек: H.265 (HEVC)
розмір кадру: 1920 x 960
бітрейт: 6 511 кб/с
бітова глибина: 10 біт
Увага! Перед завантаженням переконайтесь, що ваш пристрій відтворення (та/або ПЗ) підтримує H.265 (HEVC)

Аудіо # 1:
мова: українська
переклад: багатоголосий закадровий | DniproFilm
кодек: 5.1
бітрейт: 384 кб/с

Аудіо # 2:
мова: українська
переклад: професійний багатоголосий закадровий | НеЗупиняйПродакшн
кодек: 5.1
бітрейт: 640 кб/с

Аудіо # 3:
мова: англійська
переклад: оригінал
кодек: E-AC-3 5.1
бітрейт: 640 кб/с

Субтитри # 1:
мова: англійська (SDH),
тип: програмні (м'які)
формат: *.srt


Info
Код:
General
Unique ID                                : 156885596971593245799444426695311349857 (0x76071120B0BDECB1E5261AF3EFF7D861)
Complete name                            : Black Mirror (2019) - S05E01 - Striking Vipers - 1080p H.265 [2xUKR_ENG] [Hurtom].
Format                                   :
Format version                           : Version 4 / Version 2
File size                                : 3.53 GiB
Duration                                 : 1 h 1 min
Overall bit rate                         : 8 180 kb/s
Movie name                               : Black Mirror (2019) - S05E01 - Striking Vipers
Encoded date                             : UTC 2019-07-06 06:57:07
Writing application                      : v20.0.0 ('I Am The Sun') 64-bit
Writing library                          : libebml v1.3.5 + v1.4.8
Cover                                    : Yes
Attachments                              : Cover

Video
ID                                       : 1
Format                                   : HEVC
Format/Info                              : High Efficiency Video Coding
Format profile                           : Main [email protected]@High
Codec ID                                 : V_MPEGH/ISO/HEVC
Duration                                 : 1 h 1 min
Bit rate                                 : 6 511 kb/s
Width                                    : 1 920 pixels
Height                                   : 960 pixels
Display aspect ratio                     : 2.000
Frame rate mode                          : Constant
Frame rate                               : 25.000 FPS
Color space                              : YUV
Chroma subsampling                       : 4:2:0
Bit depth                                : 10 bits
Bits/(Pixel*Frame)                       : 0.141
Stream size                              : 2.81 GiB (80%)
Title                                    : Black Mirror (2019) - S05E01 - Striking Vipers
Writing library                          : x265 3.0_Au+18-768ab38fd5fd:[Windows][clang 8.0.0][64 bit] 10bit
Encoding settings                        : cpuid=1111039 / frame-threads=9 / numa-pools=8 / wpp / no-pmode / no-pme / no-psnr / no-ssim / log-level=3 / input-csp=1 / input-res=1920x960 / interlace=0 / total-frames=0 / level-idc=51 / high-tier=1 / uhd-bd=0 / ref=5 / allow-non-conformance / no-repeat-headers / annexb / no-aud / no-hrd / info / hash=0 / no-temporal-layers / open-gop / min-keyint=23 / keyint=250 / gop-lookahead=0 / bframes=8 / b-adapt=2 / b-pyramid / bframe-bias=0 / rc-lookahead=40 / lookahead-slices=6 / scenecut=40 / radl=0 / no-splice / no-intra-refresh / ctu=64 / min-cu-size=8 / rect / amp / max-tu-size=32 / tu-inter-depth=4 / tu-intra-depth=4 / limit-tu=0 / rdoq-level=2 / dynamic-rd=0.00 / no-ssim-rd / signhide / no-tskip / nr-intra=0 / nr-inter=0 / no-constrained-intra / no-strong-intra-smoothing / max-merge=2 / limit-refs=3 / no-limit-modes / me=3 / subme=7 / merange=57 / temporal-mvp / weightp / weightb / no-analyze-src-pics / deblock=-3:-3 / no-sao / no-sao-non-deblock / rd=6 / no-early-skip / rskip / no-fast-intra / no-tskip-fast / no-cu-lossless / no-b-intra / no-splitrd-skip / rdpenalty=0 / psy-rd=2.00 / psy-rdoq=1.00 / no-rd-refine / no-lossless / cbqpoffs=0 / crqpoffs=0 / rc=crf / crf=18.0 / qcomp=0.65 / qpstep=1 / stats-write=0 / stats-read=0 / vbv-maxrate=50000 / vbv-bufsize=50000 / vbv-init=0.9 / crf-max=30.0 / crf-min=0.0 / ipratio=1.40 / pbratio=1.30 / aq-mode=1 / aq-strength=1.00 / cutree / zone-count=0 / no-strict-cbr / qg-size=32 / no-rc-grain / qpmax=69 / qpmin=0 / no-const-vbv / sar=1 / overscan=0 / videoformat=5 / range=0 / colorprim=2 / transfer=2 / colormatrix=2 / chromaloc=0 / display-window=0 / max-cll=0,0 / min-luma=0 / max-luma=1023 / log2-max-poc-lsb=8 / vui-timing-info / vui-hrd-info / slices=1 / no-opt-qp-pps / no-opt-ref-list-length-pps / no-multi-pass-opt-rps / scenecut-bias=0.05 / no-opt-cu-delta-qp / no-aq-motion / no-hdr / no-hdr-opt / no-dhdr10-opt / no-idr-recovery-sei / analysis-reuse-level=5 / scale-factor=0 / refine-intra=0 / refine-inter=0 / refine-mv=0 / refine-ctu-distortion=0 / no-limit-sao / ctu-info=0 / no-lowpass-dct / refine-analysis-type=538976288 / copy-pic=1 / max-ausize-factor=1.0 / no-dynamic-refine / no-single-sei / no-hevc-aq / no-svt / qp-adaptation-range=1.00
Language                                 : English
Default                                  : Yes
Forced                                   : No
Color range                              : Limited

Audio #1
ID                                       : 2
Format                                   : AC-3
Format/Info                              : Audio Coding 3
Codec ID                                 : A_AC3
Duration                                 : 1 h 1 min
Bit rate mode                            : Constant
Bit rate                                 : 384 kb/s
Channel(s)                               : 6 channels
Channel positions                        : Front: L C R, Side: L R, LFE
Sampling rate                            : 48.0 kHz
Frame rate                               : 31.250 FPS (1536 SPF)
Bit depth                                : 16 bits
Compression mode                         : Lossy
Stream size                              : 169 MiB (5%)
Title                                    : БЗ - DniproFilm
Language                                 : Ukrainian
Service kind                             : Complete Main
Default                                  : Yes
Forced                                   : Yes

Audio #2
ID                                       : 3
Format                                   : AC-3
Format/Info                              : Audio Coding 3
Codec ID                                 : A_AC3
Duration                                 : 1 h 1 min
Bit rate mode                            : Constant
Bit rate                                 : 640 kb/s
Channel(s)                               : 6 channels
Channel positions                        : Front: L C R, Side: L R, LFE
Sampling rate                            : 48.0 kHz
Frame rate                               : 31.250 FPS (1536 SPF)
Bit depth                                : 16 bits
Compression mode                         : Lossy
Stream size                              : 283 MiB (8%)
Title                                    : БЗ - НеЗупиняйПродакшн
Language                                 : Ukrainian
Service kind                             : Complete Main
Default                                  : No
Forced                                   : No

Audio #3
ID                                       : 4
Format                                   : E-AC-3
Format/Info                              : Enhanced Audio Coding 3
Codec ID                                 : A_EAC3
Duration                                 : 1 h 1 min
Bit rate mode                            : Constant
Bit rate                                 : 640 kb/s
Channel(s)                               : 6 channels
Channel positions                        : Front: L C R, Side: L R, LFE
Sampling rate                            : 48.0 kHz
Frame rate                               : 187.500 FPS (256 SPF)
Compression mode                         : Lossy
Stream size                              : 283 MiB (8%)
Title                                    : Original
Language                                 : English
Service kind                             : Complete Main
Default                                  : No
Forced                                   : No

Text
ID                                       : 5
Format                                   : UTF-8
Codec ID                                 : S_TEXT/UTF8
Codec ID/Info                            : UTF-8 Plain Text
Duration                                 : 1 h 0 min
Bit rate                                 : 44 b/s
Count of elements                        : 743
Stream size                              : 20.0 KiB (0%)
Title                                    : SDH
Language                                 : English
Default                                  : No
Forced                                   : No

Menu
00:00:05.000                             : :Intro start
00:00:25.520                             : :Intro end
Світлини

Фільми

1. Чорне Дзеркало. Бузогриз / Black Mirror. Bandersnatch (2018) 1080p H.265 Eng | Sub Ukr/Eng
Чорне Дзеркало. Бузогриз / Black Mirror. Bandersnatch (2018) 1080p H.265 Eng | Sub Ukr/Eng

Чорне Дзеркало (Сезон 1-5) / Black Mirror (Seasons 1-5) (2011-2019) 1080p H.265 Ukr/Eng | Sub Ukr/Eng


Жанр: психологічний трилер
Країна: Велика Британія
Кінокомпанія: House Of Tomorrow, Netflix
Режисер: Девід Слейд
Актори: Фінн Вайтгед, Вілл Поултер, Азім Чаудхрі, Крейг Паркінсон, Еліс Лоу, Таллула Хеддон, Джонатан Аріс, Сюзанн Берден, Джефф Мінтер та ін.

Сюжет:
Англія, липень 1984 року. Молодий програміст Стефан Батлер мріє адаптувати у відеогру роман «Бузогриз», написаний у форматі «обери свою власну пригоду» письменником із трагічною долею Джеромом Ф. Дейвізом. Однією з ділянок цієї гри є лабіринт, який треба пройти, уникаючи монстра на ім'я Пакс. Під час гри треба робити вибір, згідно з інструкціями з екрану. Батлер виробляє гру для компанії Tuckersoft, керівником якої є Моган Такур, а одним із провідних працівників — знаменитий дизайнер ігор Колін Рітман. Батлер мусить зробити вибір: прийняти чи відхилити пропозицію про допомогу у розробці гри від компанії. Якщо Батлер приймає пропозицію, Рітман каже, що він обрав хибний шлях. Гра виходить три місяці по тому, але зазнає нищівної критики. Батлер вирішує спробувати знову, і фільм повертається до дня, коли Такур робить йому пропозицію про співпрацю. Батлер має зробити той самий вибір знову...

Тривалість: 01:33:12
Якість:
Відео:
кодек: H.265 (HEVC)
розмір кадру: 1920 x 872
бітрейт: 6 429 кб/с
бітова глибина: 10 біт
Увага! Перед завантаженням переконайтесь, що ваш пристрій відтворення (та/або ПЗ) підтримує H.265 (HEVC)

Аудіо # 1:
мова: англійська
переклад: оригінал
кодек: E-AC-3 5.1
бітрейт: 640 кб/с

Субтитри # 1:
мова: українська (Full (by -Star-Lord-)),
тип: програмні (м'які)
формат: *.srt

Субтитри # 2:
мова: англійська (Full),
тип: програмні (м'які)
формат: *.srt

Субтитри # 3:
мова: англійська (SDH),
тип: програмні (м'які)
формат: *.srt


Info
Код:
General
Unique ID                                : 18870544469630837220365105158247905218 (0xE3255ACAD5E627A3B60ACCCF81777C2)
Complete name                            : Black Mirror. Bandersnatch (2018) 1080p H.265 [ENG] [Hurtom].
Format                                   :
Format version                           : Version 4 / Version 2
File size                                : 4.60 GiB
Duration                                 : 1 h 33 min
Overall bit rate                         : 7 072 kb/s
Movie name                               : Black Mirror. Bandersnatch (2018)
Encoded date                             : UTC 2019-05-04 15:20:55
Writing application                      : v20.0.0 ('I Am The Sun') 64-bit
Writing library                          : libebml v1.3.5 + v1.4.8
Cover                                    : Yes
Attachments                              : Cover.jpg

Video
ID                                       : 1
Format                                   : HEVC
Format/Info                              : High Efficiency Video Coding
Format profile                           : Main [email protected]@High
Codec ID                                 : V_MPEGH/ISO/HEVC
Duration                                 : 1 h 33 min
Bit rate                                 : 6 429 kb/s
Width                                    : 1 920 pixels
Height                                   : 872 pixels
Display aspect ratio                     : 2.2:1
Frame rate mode                          : Constant
Frame rate                               : 25.000 FPS
Color space                              : YUV
Chroma subsampling                       : 4:2:0
Bit depth                                : 10 bits
Bits/(Pixel*Frame)                       : 0.154
Stream size                              : 4.19 GiB (91%)
Title                                    : Black Mirror. Bandersnatch (2018)
Writing library                          : x265 3.0_Au+18-768ab38fd5fd:[Windows][clang 8.0.0][64 bit] 10bit
Encoding settings                        : cpuid=1111039 / frame-threads=9 / numa-pools=8 / wpp / no-pmode / no-pme / no-psnr / no-ssim / log-level=3 / input-csp=1 / input-res=1920x872 / interlace=0 / total-frames=0 / level-idc=51 / high-tier=1 / uhd-bd=0 / ref=5 / allow-non-conformance / no-repeat-headers / annexb / no-aud / no-hrd / info / hash=0 / no-temporal-layers / open-gop / min-keyint=23 / keyint=250 / gop-lookahead=0 / bframes=8 / b-adapt=2 / b-pyramid / bframe-bias=0 / rc-lookahead=20 / lookahead-slices=5 / scenecut=40 / radl=0 / no-splice / no-intra-refresh / ctu=64 / min-cu-size=8 / rect / amp / max-tu-size=32 / tu-inter-depth=4 / tu-intra-depth=4 / limit-tu=0 / rdoq-level=2 / dynamic-rd=0.00 / no-ssim-rd / signhide / no-tskip / nr-intra=0 / nr-inter=0 / no-constrained-intra / no-strong-intra-smoothing / max-merge=2 / limit-refs=3 / no-limit-modes / me=3 / subme=7 / merange=57 / temporal-mvp / weightp / weightb / no-analyze-src-pics / deblock=-3:-3 / no-sao / no-sao-non-deblock / rd=6 / no-early-skip / rskip / no-fast-intra / no-tskip-fast / no-cu-lossless / no-b-intra / no-splitrd-skip / rdpenalty=0 / psy-rd=2.00 / psy-rdoq=1.00 / no-rd-refine / no-lossless / cbqpoffs=0 / crqpoffs=0 / rc=crf / crf=18.0 / qcomp=0.60 / qpstep=4 / stats-write=0 / stats-read=0 / vbv-maxrate=50000 / vbv-bufsize=50000 / vbv-init=0.9 / crf-max=0.0 / crf-min=0.0 / ipratio=1.40 / pbratio=1.30 / aq-mode=1 / aq-strength=1.00 / cutree / zone-count=0 / no-strict-cbr / qg-size=32 / no-rc-grain / qpmax=69 / qpmin=0 / no-const-vbv / sar=1 / overscan=0 / videoformat=5 / range=0 / colorprim=2 / transfer=2 / colormatrix=2 / chromaloc=0 / display-window=0 / max-cll=0,0 / min-luma=0 / max-luma=1023 / log2-max-poc-lsb=8 / vui-timing-info / vui-hrd-info / slices=1 / no-opt-qp-pps / no-opt-ref-list-length-pps / no-multi-pass-opt-rps / scenecut-bias=0.05 / no-opt-cu-delta-qp / no-aq-motion / no-hdr / no-hdr-opt / no-dhdr10-opt / no-idr-recovery-sei / analysis-reuse-level=5 / scale-factor=0 / refine-intra=0 / refine-inter=0 / refine-mv=0 / refine-ctu-distortion=0 / no-limit-sao / ctu-info=0 / no-lowpass-dct / refine-analysis-type=166907136 / copy-pic=1 / max-ausize-factor=1.0 / no-dynamic-refine / no-single-sei / no-hevc-aq / no-svt / qp-adaptation-range=1.00
Language                                 : English
Default                                  : Yes
Forced                                   : No
Color range                              : Limited

Audio
ID                                       : 2
Format                                   : E-AC-3
Format/Info                              : Enhanced Audio Coding 3
Codec ID                                 : A_EAC3
Duration                                 : 1 h 33 min
Bit rate mode                            : Constant
Bit rate                                 : 640 kb/s
Channel(s)                               : 6 channels
Channel positions                        : Front: L C R, Side: L R, LFE
Sampling rate                            : 48.0 kHz
Frame rate                               : 187.500 FPS (256 SPF)
Compression mode                         : Lossy
Stream size                              : 427 MiB (9%)
Title                                    : Original
Language                                 : English
Service kind                             : Complete Main
Default                                  : Yes
Forced                                   : Yes

Text #1
ID                                       : 3
Format                                   : UTF-8
Codec ID                                 : S_TEXT/UTF8
Codec ID/Info                            : UTF-8 Plain Text
Duration                                 : 1 h 32 min
Bit rate                                 : 84 b/s
Count of elements                        : 1052
Stream size                              : 56.8 KiB (0%)
Title                                    : Full (by -Star-Lord-)
Language                                 : Ukrainian
Default                                  : Yes
Forced                                   : No

Text #2
ID                                       : 4
Format                                   : UTF-8
Codec ID                                 : S_TEXT/UTF8
Codec ID/Info                            : UTF-8 Plain Text
Duration                                 : 1 h 29 min
Bit rate                                 : 50 b/s
Count of elements                        : 938
Stream size                              : 33.1 KiB (0%)
Title                                    : Full
Language                                 : English
Default                                  : No
Forced                                   : No

Text #3
ID                                       : 5
Format                                   : UTF-8
Codec ID                                 : S_TEXT/UTF8
Codec ID/Info                            : UTF-8 Plain Text
Duration                                 : 1 h 31 min
Bit rate                                 : 54 b/s
Count of elements                        : 1101
Stream size                              : 36.4 KiB (0%)
Title                                    : SDH
Language                                 : English
Default                                  : No
Forced                                   : No
Світлини

Джерело: &
Особиста оцінка: 10 - без зайвих вагань рекомендую всім!



Авторський реліз (завантажувати можна без реєстрації)
 Трекер:    Зареєстрований   

Завантажити / скачати серіал українською



відео для новачків



 Зареєстрований:   2019-08-05 10:41
 Розмір:   69.29 GB 
 Оцінка серіалу:   10/10 (Голосів: 6)
   
bot 
робот


З нами з: 30.09.07
Востаннє: 26.05.05
Повідомлень: 21799

2019-07-26 01:12  
Тему перенесено з Серіали в HD до форуму Анонси релізів


-Star-Lord-

Dark Invader 
Модератор відео


З нами з: 06.01.11
Востаннє: 24.08.19
Повідомлень: 2711

2019-07-26 01:42  
Anonymous написано:
00. White Christmas (special episode) / Біле Різдво (спецепізод)

Це 4-й епізод.

Anonymous 







2019-07-26 08:52  
Dark Invader
Ні, це спецепізод, який вийшов раніше 2 сезону.

Electroz 
Відео Гуртом - підтримка та поширення
Відео Гуртом - підтримка та поширення


З нами з: 18.09.14
Востаннє: 24.08.19
Повідомлень: 3538

2019-07-26 09:55  
Anonymous написано:
який вийшов раніше 2 сезону

Чому раніше, якщо показували після другого сезону?

Anonymous 







2019-07-26 14:28  
Electroz написано:
Чому раніше, якщо показували після другого сезону?

Перевірив ще раз і, Ви праві. Таки вийшов після. Вибачте за дезінформацію.

Igor_kachynskyy 
Новенький


З нами з: 03.01.18
Востаннє: 19.08.19
Повідомлень: 14

2019-07-27 14:34  
Я бачив першу серію вона класна всі решта так собі.
Anonymous 







2019-07-27 17:10  
Igor_kachynskyy
Маєте на увазі першу серію, першого сезону?

vash1 
Поважний учасник


З нами з: 16.03.16
Востаннє: 23.08.19
Повідомлень: 204

2019-07-27 23:45  
круто! чекаю!
Anonymous 







2019-07-28 23:47  
Надіюся справитись до наступного понеділка.
bot 
робот


З нами з: 30.09.07
Востаннє: 26.05.05
Повідомлень: 21799

2019-08-05 10:41  
Тему перенесено з Анонси релізів до форуму Серіали в HD


-Star-Lord-

vash1 
Поважний учасник


З нами з: 16.03.16
Востаннє: 23.08.19
Повідомлень: 204

2019-08-11 00:57  
то є просто супер!
Ваш часовий пояс: GMT + 2 Години

Нова тема   Відповісти