Мегамозок / Megamind (2010) 1080p H.265 Ukr/Eng | Sub Ukr/Eng

Нові коментарі

Нова тема   Відповісти
Автор Повідомлення
Anonymous 







2019-07-25 23:15  
Мегамозок / Megamind (2010) 1080p H.265 Ukr/Eng | Sub Ukr/Eng

Мегамозок / Megamind (2010) 1080p H.265 Ukr/Eng | Sub Ukr/Eng


Жанр: комедія, мультфільм, сімейний
Країна: США
Кінокомпанія: DreamWorks Animation, Pacific Data Images, Red Hour Films, Universal Pictures International
Режисер: Том МакГрат
Ролі озвучували: Вілл Феррелл, Бред Пітт, Тіна Фей, Джонна Хілл, Девід Кросс.

Сюжет:
Мегамозок - найгеніальніший і найбільший невдаха лиходій у світі. Ось уже багато років він намагається підкорити Метро-Сіті найрізноманітнішими способами. Але кожна така спроба закінчується провалом з вини супергероя на ім'я Метро-Мен. Але лиходій вбиває супергероя, і раптово Мегамозок позбавляється мети у житті. Суперлиходій без супергероя.
Єдиний вихід - створити нового супергероя, якого він називає Титаном. Але Титан вирішує, що бути лиходієм куди цікавіше. Ось тільки йому не хочеться правити світом, він бажає його знищити...

Тривалість: 01:35:34
Якість:

Відео:
кодек: H.265 (HEVC)
розмір кадру: 1920 x 816
бітрейт: 4 872 кб/с
бітова глибина: 10 біт

Увага! Перед завантаженням переконайтесь, що ваш пристрій відтворення (та/або ПЗ) підтримує H.265 (HEVC)

Аудіо # 1:
мова: українська
переклад: професійний дубльований
кодек: AC-3 5.1
бітрейт: 640 кб/с

Аудіо # 2:
мова: англійська
переклад: оригінал
кодек: 5.1
бітрейт: 1510 кб/с

Субтитри # 1-2: (Forced, Full)
мова: українська
тип: програмні (м'які)
формат: *.srt

Субтитри # 3-4: (Full, SDH)
мова: англійська
тип: програмні (м'які)
формат: *.srt


Info
Код:
General
Unique ID                                : 7994113151311191459702992391219173696 (0x6039C356447CE4678CA35DED717D940)
Complete name                            : Megamind (2010) 1080p H.265 [UKR_ENG] [Hurtom].
Format                                   :
Format version                           : Version 4
File size                                : 4.69 GiB
Duration                                 : 1 h 35 min
Overall bit rate                         : 7 024 kb/s
Movie name                               : Мегамозок / Megamind (2010)
Encoded date                             : UTC 2019-12-25 19:13:22
Writing application                      : v20.0.0 ('I Am The Sun') 64-bit
Writing library                          : libebml v1.3.5 + v1.4.8
Cover                                    : Yes
Attachments                              : Cover.jpg

Video
ID                                       : 1
Format                                   : HEVC
Format/Info                              : High Efficiency Video Coding
Format profile                           : Main [email protected]@High
Codec ID                                 : V_MPEGH/ISO/HEVC
Duration                                 : 1 h 35 min
Bit rate                                 : 4 872 kb/s
Width                                    : 1 920 pixels
Height                                   : 816 pixels
Display aspect ratio                     : 2.35:1
Frame rate mode                          : Constant
Frame rate                               : 23.976 (24000/1001) FPS
Color space                              : YUV
Chroma subsampling                       : 4:2:0
Bit depth                                : 10 bits
Bits/(Pixel*Frame)                       : 0.130
Stream size                              : 3.25 GiB (69%)
Title                                    : Мегамозок / Megamind (2010)
Writing library                          : x265 3.2.1+1-b5c86a64bbbe:[Windows][MSVC 1923][64 bit] 10bit
Encoding settings                        : cpuid=1111039 / frame-threads=3 / numa-pools=12 / wpp / no-pmode / no-pme / no-psnr / no-ssim / log-level=2 / input-csp=1 / input-res=1920x816 / interlace=0 / total-frames=127617 / level-idc=41 / high-tier=1 / uhd-bd=0 / ref=5 / no-allow-non-conformance / no-repeat-headers / annexb / no-aud / no-hrd / info / hash=0 / no-temporal-layers / open-gop / min-keyint=23 / keyint=240 / gop-lookahead=0 / bframes=8 / b-adapt=2 / b-pyramid / bframe-bias=0 / rc-lookahead=60 / lookahead-slices=4 / scenecut=40 / radl=0 / no-splice / no-intra-refresh / ctu=32 / min-cu-size=8 / rect / amp / max-tu-size=32 / tu-inter-depth=4 / tu-intra-depth=4 / limit-tu=1 / rdoq-level=2 / dynamic-rd=0.00 / no-ssim-rd / signhide / no-tskip / nr-intra=0 / nr-inter=0 / no-constrained-intra / no-strong-intra-smoothing / max-merge=4 / limit-refs=2 / limit-modes / me=3 / subme=7 / merange=57 / temporal-mvp / no-hme / weightp / weightb / no-analyze-src-pics / deblock=-3:-3 / no-sao / no-sao-non-deblock / rd=6 / selective-sao=0 / no-early-skip / no-rskip / no-fast-intra / no-tskip-fast / no-cu-lossless / no-b-intra / no-splitrd-skip / rdpenalty=0 / psy-rd=2.00 / psy-rdoq=1.00 / no-rd-refine / no-lossless / cbqpoffs=0 / crqpoffs=0 / rc=crf / crf=19.0 / qcomp=0.60 / qpstep=4 / stats-write=0 / stats-read=0 / vbv-maxrate=50000 / vbv-bufsize=50000 / vbv-init=0.9 / crf-max=0.0 / crf-min=0.0 / ipratio=1.40 / pbratio=1.30 / aq-mode=1 / aq-strength=1.00 / no-cutree / zone-count=0 / no-strict-cbr / qg-size=32 / no-rc-grain / qpmax=69 / qpmin=0 / no-const-vbv / sar=1 / overscan=0 / videoformat=5 / range=0 / colorprim=1 / transfer=1 / colormatrix=1 / chromaloc=0 / display-window=0 / cll=0,0 / min-luma=0 / max-luma=1023 / log2-max-poc-lsb=8 / vui-timing-info / vui-hrd-info / slices=1 / no-opt-qp-pps / no-opt-ref-list-length-pps / no-multi-pass-opt-rps / scenecut-bias=0.05 / no-opt-cu-delta-qp / no-aq-motion / no-hdr / no-hdr-opt / no-dhdr10-opt / no-idr-recovery-sei / analysis-reuse-level=5 / scale-factor=0 / refine-intra=0 / refine-inter=0 / refine-mv=1 / refine-ctu-distortion=0 / no-limit-sao / ctu-info=0 / no-lowpass-dct / refine-analysis-type=0 / copy-pic=1 / max-ausize-factor=1.0 / no-dynamic-refine / no-single-sei / no-hevc-aq / no-svt / no-field / qp-adaptation-range=1.00
Default                                  : Yes
Forced                                   : No
Color range                              : Limited
Color primaries                          : BT.709
Transfer characteristics                 : BT.709
Matrix coefficients                      : BT.709

Audio #1
ID                                       : 2
Format                                   : AC-3
Format/Info                              : Audio Coding 3
Commercial name                          : Dolby Digital
Codec ID                                 : A_AC3
Duration                                 : 1 h 35 min
Bit rate mode                            : Constant
Bit rate                                 : 640 kb/s
Channel(s)                               : 6 channels
Channel layout                           : L R C LFE Ls Rs
Sampling rate                            : 48.0 kHz
Frame rate                               : 31.250 FPS (1536 SPF)
Bit depth                                : 16 bits
Compression mode                         : Lossy
Stream size                              : 438 MiB (9%)
Title                                    : / 5.1 Ch / 640 kbps / Blu-Ray / ПД
Language                                 : Ukrainian
Service kind                             : Complete Main
Default                                  : Yes
Forced                                   : Yes

Audio #2
ID                                       : 3
Format                                   :
Format/Info                              : Digital Theater Systems
Codec ID                                 : A_DTS
Duration                                 : 1 h 35 min
Bit rate mode                            : Constant
Bit rate                                 : 1 509 kb/s
Channel(s)                               : 6 channels
Channel layout                           : C L R Ls Rs LFE
Sampling rate                            : 48.0 kHz
Frame rate                               : 93.750 FPS (512 SPF)
Bit depth                                : 24 bits
Compression mode                         : Lossy
Stream size                              : 1.01 GiB (21%)
Title                                    : / 5.1 Ch / 1509 kbps / Original
Language                                 : English
Default                                  : No
Forced                                   : No

Text #1
ID                                       : 4
Format                                   : UTF-8
Codec ID                                 : S_TEXT/UTF8
Codec ID/Info                            : UTF-8 Plain Text
Duration                                 : 1 h 10 min
Bit rate                                 : 1 b/s
Count of elements                        : 21
Stream size                              : 859 Bytes (0%)
Title                                    : Forced
Language                                 : Ukrainian
Default                                  : Yes
Forced                                   : Yes

Text #2
ID                                       : 5
Format                                   : UTF-8
Codec ID                                 : S_TEXT/UTF8
Codec ID/Info                            : UTF-8 Plain Text
Duration                                 : 1 h 34 min
Bit rate                                 : 106 b/s
Count of elements                        : 1288
Stream size                              : 74.0 KiB (0%)
Title                                    : Full
Language                                 : Ukrainian
Default                                  : No
Forced                                   : No

Text #3
ID                                       : 6
Format                                   : UTF-8
Codec ID                                 : S_TEXT/UTF8
Codec ID/Info                            : UTF-8 Plain Text
Duration                                 : 1 h 34 min
Bit rate                                 : 66 b/s
Count of elements                        : 1256
Stream size                              : 45.9 KiB (0%)
Title                                    : Full
Language                                 : English
Default                                  : No
Forced                                   : No

Text #4
ID                                       : 7
Format                                   : UTF-8
Codec ID                                 : S_TEXT/UTF8
Codec ID/Info                            : UTF-8 Plain Text
Duration                                 : 1 h 34 min
Bit rate                                 : 77 b/s
Count of elements                        : 1471
Stream size                              : 54.0 KiB (0%)
Title                                    : SDH
Language                                 : English
Default                                  : No
Forced                                   : No

Menu
00:00:00.000                             : en: 01
00:06:20.589                             : en: 02
00:10:03.436                             : en: 03
00:15:58.416                             : en: 04
00:22:50.536                             : en: 05
00:28:01.555                             : en: 06
00:32:11.138                             : en: 07
00:39:02.757                             : en: 08
00:45:12.752                             : en: 09
00:52:24.058                             : en: 10
00:56:37.394                             : en: 11
01:04:30.575                             : en: 12
01:10:14.877                             : en: 13
01:17:45.786                             : en: 14
01:25:55.942                             : en: 15
Світлини




Джерело: &
Особиста оцінка: 10 - без зайвих вагань рекомендую всім!


 Трекер:    Зареєстрований   

Завантажити / скачати мультфільм українською



відео для новачків



 Зареєстрований:   2019-12-26 10:16
 Розмір:   4.69 GB 
 Оцінка мультфільму:   9.6/10 (Голосів: 11)
   
Інші релізи
   Мегамозок / Megamind (2010) 1080p-mini | Sub Ukr/Eng Zeus62  2 / 0   4.34 GB   2011-04-21 11:48 
   Мегамозок / Megamind (2010) 720p Ukr/Eng SuperContik  7 / 0   4.13 GB   2011-04-18 21:44 
   Мегамозок / Megamind (2010) 1080p Ukr/Eng SuperContik  8 / 1   7.44 GB   2011-04-17 22:11 
   Мегамозок / Megamind (2010) Ukr/Eng antik_2008  12 / 0   1.98 GB   2011-04-16 14:15 
   Мегамозок / Megamind (2010) Anonymous  9 / 0   1.47 GB   2011-04-16 11:31 
bot 
робот


З нами з: 30.09.07
Востаннє: 26.05.05
Повідомлень: 27255

2019-07-25 23:16  
Тему перенесено з Анонси релізів до форуму Мультфільми в HD


-Star-Lord-

Ваш часовий пояс: GMT + 2 Години

Нова тема   Відповісти