Доктор Фостер (Сезон 1) / Doctor Foster (Season 1) (2015) 720p Ukr/Eng

Нові коментарі

Нова тема   Відповісти
Автор Повідомлення
Anonymous 







2019-07-25 14:54  
Доктор Фостер (Сезон 1) / Doctor Foster (Season 1) (2015) 720p Ukr/Eng


Жанр: драма
Країна: Великобританія


Кінокомпанія / телеканал: British Broadcasting Corporation (BBC) Television / BBC
Режисер: Джеремі Лаврінг, Том Вон, Брюс Гудісон
Актори: Сюранна Джоунс, Берті Карвел, Том Тейлор, Тусіта Джейасундера, Шазія Николлс та інші

Сюжет:
Доктор Фостер зазвичай поводиться спокійно і розважливо, але коли вона підозрює, що коханий чоловік завів роман на стороні, то все йде шкереберть. Тепер у жінки лише одна мета - зрозуміти, що насправді відбувається у її житті.

Однак з'ясування стосунків призвело до гірших наслідків: сімейне життя перетворюється на хаос, а близькі і пацієнти вже не впізнають колись милу і спокійну жінку.


Тривалість: 1 серія: 58:00 (цілком серій: 5)

Якість:
Відео:
кодек:
розмір кадру: 1280 х 544
бітрейт: ~4960 кб/с

Аудіо # 1:
мова: українська
переклад: багатоголосий закадровий
кодек: 2.0
бітрейт: 224 кб/с

Аудіо # 2:
мова: англійська
переклад: оригінал
кодек: 5.1
бітрейт: 1509 кб/с

Переклад і озвучення виконано:
Info
General
Unique ID : 112956797607390167363950834067549856484 (0x54FAB019C86D5E97DAFFFC6D27D222E4)
Complete name : \video\Doctor.Foster.s01BDRip.720p.Ukr.Eng\Doctor.Foster.s01e01..720p.Ukr.Eng.
Format :
Format version : Version 4 / Version 2
File size : 2.74 GiB
Duration : 58 min 35 s
Overall bit rate : 6 692 kb/s
Encoded date : UTC 2019-07-25 12:28:42
Writing application : v31.0.0 ('Dolores In A Shoestand') 64-bit
Writing library : libebml v1.3.6 + v1.4.9

Video
ID : 1
Format : AVC
Format/Info : Advanced Video Codec
Format profile : [email protected]
Format settings : CABAC / 5 Ref Frames
Format settings, CABAC : Yes
Format settings, ReFrames : 5 frames
Codec ID : V_MPEG4/ISO/AVC
Duration : 58 min 35 s
Bit rate : 4 957 kb/s
Width : 1 280 pixels
Height : 544 pixels
Display aspect ratio : 2.35:1
Frame rate mode : Constant
Frame rate : 25.000 FPS
Color space : YUV
Chroma subsampling : 4:2:0
Bit depth : 8 bits
Scan type : Progressive
Bits/(Pixel*Frame) : 0.285
Stream size : 2.03 GiB (74%)
Writing library : core 148 r2692 64f4e24
Encoding settings : cabac=1 / ref=5 / deblock=1:-1:-1 / analyse=0x3:0x133 / me=umh / subme=7 / psy=1 / psy_rd=1.00:0.00 / mixed_ref=1 / me_range=16 / chroma_me=1 / trellis=1 / 8x8dct=1 / cqm=0 / deadzone=21,11 / fast_pskip=0 / chroma_qp_offset=-2 / threads=6 / lookahead_threads=1 / sliced_threads=0 / nr=0 / decimate=1 / interlaced=0 / bluray_compat=0 / constrained_intra=0 / bframes=3 / b_pyramid=2 / b_adapt=2 / b_bias=0 / direct=3 / weightb=1 / open_gop=0 / weightp=2 / keyint=250 / keyint_min=25 / scenecut=40 / intra_refresh=0 / rc_lookahead=50 / rc=2pass / mbtree=1 / bitrate=4957 / ratetol=1.0 / qcomp=0.60 / qpmin=10 / qpmax=51 / qpstep=4 / cplxblur=20.0 / qblur=0.5 / vbv_maxrate=62500 / vbv_bufsize=78125 / nal_hrd=none / filler=0 / ip_ratio=1.40 / aq=1:1.00
Default : Yes
Forced : No

Audio #1
ID : 2
Format : AC-3
Format/Info : Audio Coding 3
Commercial name : Dolby Digital
Codec ID : A_AC3
Duration : 58 min 35 s
Bit rate mode : Constant
Bit rate : 224 kb/s
Channel(s) : 2 channels
Channel positions : Front: L R
Sampling rate : 48.0 kHz
Frame rate : 31.250 FPS (1536 SPF)
Bit depth : 16 bits
Compression mode : Lossy
Stream size : 93.9 MiB (3%)
Language : Ukrainian
Service kind : Complete Main
Default : Yes
Forced : No

Audio #2
ID : 3
Format :
Format/Info : Digital Theater Systems
Codec ID : A_DTS
Duration : 58 min 35 s
Bit rate mode : Constant
Bit rate : 1 509 kb/s
Channel(s) : 6 channels
Channel positions : Front: L C R, Side: L R, LFE
Sampling rate : 48.0 kHz
Frame rate : 93.750 FPS (512 SPF)
Bit depth : 24 bits
Compression mode : Lossy
Stream size : 632 MiB (23%)
Language : English
Default : No
Forced : No

Menu
00:00:00.000 : en:00:00:00.000
00:08:47.040 : en:00:08:47.040
00:20:47.600 : en:00:20:47.600
00:29:05.160 : en:00:29:05.160
00:38:43.880 : en:00:38:43.880
00:48:40.600 : en:00:48:40.600
Скріншоти:

Джерело:
Особиста оцінка: 10 - без зайвих вагань рекомендую всім!


Бронзовий реліз (на рейтинг впливає 75% завантаженого)
 Трекер:    Зареєстрований   

Завантажити / скачати серіал українською



відео для новачків



 Зареєстрований:   2019-07-25 14:54
 Розмір:   13.68 GB 
 Оцінка серіалу:   8.9/10 (Голосів: 8)
   
Anonymous 







2019-07-25 15:00  
І в першому коментарі додам тексту трохи від себе. Вважаю серіал дуже якісним, з чудовою акторською грою, але недооціненим. Навіть східний сусід не спромігся зробити на нього влучне озвучення, але і тут є одне "але" — "Інтер" нажаль кастрував його так само, як і Абатство Даунтон, тобто в кожній серії нема приблизно 5-6 хвилин (а також сегменти "в минулій серії" та "в наступній серії). Та все ж, ми тут намагаємося зберегти україномовне озвучення, тому пророблена робота з тим що є і донесено на розгляд громадськості. Якщо хтось зробить українські субтитри на місця без перекладу — роздачу буде оновлено.

Другий сезон буде. Приблизно того ж часу наступного тижня. Дякую за увагу, приємного перегляду!

leicheman 
Відео Гуртом - фільмокрай
Відео Гуртом - фільмокрай


З нами з: 03.07.14
Востаннє: 05.12.20
Повідомлень: 5709

2019-07-25 16:01  
PuMa.ua написано:
Вважаю серіал дуже якісним, з чудовою акторською грою, але недооціненим.

Так майже завжди з Британськими серіалами =(

Щодо субтитрів то напишіть у цій https://toloka.to/t75617 темі, скиньте самі субтитри чи текст який потрібно перекласти.
І коли будете оновлювати реліз то перекодуйде англ звук у ас3 -384 чи 448 тоді вона буде займати десь по 100 мб, а з 5 серій зекономить 2.5гб.

Додано через 1 хвилину 38 секунд:

PuMa.ua написано:
Docter Foster

Doctor

maxataxa 
Новенький


З нами з: 16.03.11
Востаннє: 05.12.20
Повідомлень: 14

2019-08-01 18:27  
Підкажіть, коли буде викладено другий сезон?
drakonchyk 
Новенький


З нами з: 08.09.12
Востаннє: 05.12.20
Повідомлень: 2

2019-08-25 13:43  
теж чекаю другий сезон
Neytreenor 
Відео Гуртом - запис з ТБ
Відео Гуртом - запис з ТБ


З нами з: 03.04.11
Востаннє: 05.12.20
Повідомлень: 2924

2019-08-25 13:59  
PuMa.ua написано:
Лікар Фостер (Сезон 1) / Doctor Foster (Season 1)

Назву серіалу перекладено як Доктор Фостер. Лікар - це ґуґл-транслейт програми ТБ. Виправте в описі.

ivan vyrvyvuho 
VIP


З нами з: 19.08.12
Востаннє: 04.12.20
Повідомлень: 1177

2019-10-11 22:36  
Чудовий драматичний психологічний серіал. Подивився із задоволенням. Частина, де ГГ зустрічається з бухгалтером чоловіка й умовляє його поступити, як їй треба, просто цукерочка. Happy)) Обожнюю таке, 9 /10.
waldi-hurtom 
VIP


З нами з: 07.10.12
Востаннє: 05.12.20
Повідомлень: 1218

2020-02-21 13:10  
Є хто на роздачі? Вже кілька днів не можу взяти.
waldi-hurtom 
VIP


З нами з: 07.10.12
Востаннє: 05.12.20
Повідомлень: 1218

2020-02-28 19:02  
Перший сезон дуже гарний. До такої якості дотягує можливо, один з 10-20 фільмів, і один з 20-30 серіалів. 10 балів. Дуже псує відсутність англійських субтитрів, особливо в неперекладених місцях. На слух, на жаль, моя англійська зовсім ніяка. Почитав опис другого сезону і зрозумів, чому його не викладають. Краще вчасно зупинитися, щоб не псувати враження. Дякую за реліз!
Ваш часовий пояс: GMT + 2 Години

Нова тема   Відповісти