Чорне Дзеркало (Сезон 3) / Black Mirror (Season 3) (2016) 1080p Ukr/Eng | Sub Ukr/Eng

Нові коментарі

Нова тема   Відповісти
Автор Повідомлення
Argentum 
VIP


З нами з: 25.09.11
Востаннє: 01.12.20
Повідомлень: 262

2019-07-25 14:49  
Чорне Дзеркало (Сезон 3) / Black Mirror (Season 3) (2016) 1080p Ukr/Eng | Sub Ukr/Eng

Чорне Дзеркало (Сезон 3) / Black Mirror (Season 3) (2016) 1080p Ukr/Eng | Sub Ukr/Eng


Жанр: фантастика, трилер, драма
Країна: Велика Британія, США



Кінокомпанія: Zeppotron, Channel 4, Netflix
Режисер: Джо Райт, Ден Трахтенберг, Джеймс Воткінс, Овен Гарріс, Якоб Вербрюгген, Джеймс Гоуз
Актори: Брайс Даллас Говард, Еліс Ів, Джеймс Нортон, Ваятт Расселл, Ганна Джон-Кеймен, Вунмі Мосаку, Алекс Лотер, Джером Флінн, Гугу Мбата-Роу, Маккензі Девіс, Малахій Кірбі, Медлін Брюер, Аріана Лабед, Келлі Макдональд, Фей Марсі, Бенедикт Вонг та інші.

Сюжет:
Британський фантастичний телесеріал, створений за сценарієм Чарлі Брукера. Серії не пов'язані між собою ні сюжетом, ні акторами, ні часом або місцем. За словами Брукера, всі сюжети об'єднує лише сатира на той образ життя, що поширений в сучасному суспільстві. Наскрізна тема - вплив інформаційних технологій на людські відносини.


Тривалість: 1 серія: ~ 60:00 (цілком серій: 6)
Перелік серій
S03E01. "Nosedive"
S03E02. "Playtest"
S03E03. ''Shut Up and Dance"
S03E04. "San Junipero"
S03E05. "Men Against Fire"
S03E06. "Hated in the Nation"
Якість: 1080p
Відео:
кодек:
розмір кадру: 1920 х 1012
бітрейт: 10.9 - 14.9 Mб/с

Аудіо # 1:
мова: українська
переклад: багатоголосий закадровий | MelodicVoiceStudio
кодек: 5.1
бітрейт: 640 кб/с
Інформація про озвучення:

Переклад: Nikson, vepucz, thealphacentauri - посилання.
Редакція: Tesu

Озвучення виконано MelodicVoiceStudio :
Текст читали: Swift (професійний актор), ihabi, Enelira, May, Arutem, Korzhik, Andrew, Riddick, Rina Lavrysh, Lis
Робота зі звуком: ihabi
Оформлення субтитрів: Enelira
Аудіо # 2:
мова: англійська
переклад: оригінал
кодек: 5.1
бітрейт: 384 кб/с

Субтитри 1-2: (форсовані, повні)
мова: українська
тип: програмні (м'які)
формат: 1 - *., 2 - *.srt

Субтитри 3:
мова: англійська
тип: програмні (м'які)
формат: *.srt
Info
General
Unique ID : 108163438858574661502836092176393424764 (0x515F8544A2FDBEBB718EC371B4A1CF7C)
Complete name : Black.Mirror.S03.(2016).[Ukr,Eng]..1080p\Black.Mirror.S03E01.(2016).[Ukr,Eng]..1080p..
Format :
Format version : Version 4
File size : 5.22 GiB
Duration : 1 h 2 min
Overall bit rate : 11.9 Mb/s
Movie name : S03E01. "Nosedive"
Encoded date : UTC 2019-07-26 09:19:44
Writing application : v35.0.0 ('All The Love In The World') 64-bit
Writing library : libebml v1.3.9 + v1.5.2

Video
ID : 1
Format : AVC
Format/Info : Advanced Video Codec
Format profile : [email protected]
Format settings : CABAC / 4 Ref Frames
Format settings, CABAC : Yes
Format settings, Reference : 4 frames
Codec ID : V_MPEG4/ISO/AVC
Duration : 1 h 2 min
Bit rate : 10.9 Mb/s
Width : 1 920 pixels
Height : 1 012 pixels
Display aspect ratio : 1.897
Frame rate mode : Constant
Frame rate : 25.000 FPS
Color space : YUV
Chroma subsampling : 4:2:0
Bit depth : 8 bits
Scan type : Progressive
Bits/(Pixel*Frame) : 0.224
Stream size : 4.77 GiB (91%)
Title : AVC 1920*1012 @ 10.9 Mb/s
Writing library : core 148 r2721+7 72d53ab / tmod 162ad1b X86_64
Encoding settings : cabac=1 / ref=4 / deblock=1:-3:-3 / analyse=0x3:0x133 / me=umh / subme=11 / psy=1 / fade_compensate=0.00 / psy_rd=1.05:0.15 / mixed_ref=1 / me_range=48 / chroma_me=1 / trellis=2 / 8x8dct=1 / cqm=0 / deadzone=6,6 / fast_pskip=0 / chroma_qp_offset=-3 / threads=12 / lookahead_threads=3 / sliced_threads=0 / nr=0 / decimate=0 / interlaced=0 / bluray_compat=0 / constrained_intra=0 / fgo=0 / bframes=10 / b_pyramid=2 / b_adapt=2 / b_bias=0 / direct=3 / weightb=1 / open_gop=0 / weightp=2 / keyint=250 / keyint_min=25 / scenecut=40 / intra_refresh=0 / rc=crf / mbtree=0 / crf=17.0000 / qcomp=0.75 / qpmin=0:0:0 / qpmax=69:69:69 / qpstep=4 / ip_ratio=1.10 / pb_ratio=1.10 / aq=3:0.75 / aq-sensitivity=10.00 / aq-factor=1.00:1.00:1.00 / aq2=0 / aq3=0
Language : Multiple languages
Default : Yes
Forced : Yes

Audio #1
ID : 2
Format : AC-3
Format/Info : Audio Coding 3
Commercial name : Dolby Digital
Codec ID : A_AC3
Duration : 1 h 2 min
Bit rate mode : Constant
Bit rate : 640 kb/s
Channel(s) : 6 channels
Channel layout : L R C LFE Ls Rs
Sampling rate : 48.0 kHz
Frame rate : 31.250 FPS (1536 SPF)
Bit depth : 16 bits
Compression mode : Lossy
Delay relative to video : 990 ms
Stream size : 287 MiB (5%)
Title : AC-3 5.1 @ 640 kb/s
Language : Ukrainian
Service kind : Complete Main
Default : Yes
Forced : Yes

Audio #2
ID : 3
Format : AC-3
Format/Info : Audio Coding 3
Commercial name : Dolby Digital
Codec ID : A_AC3
Duration : 1 h 2 min
Bit rate mode : Constant
Bit rate : 384 kb/s
Channel(s) : 6 channels
Channel layout : L R C LFE Ls Rs
Sampling rate : 48.0 kHz
Frame rate : 31.250 FPS (1536 SPF)
Bit depth : 16 bits
Compression mode : Lossy
Stream size : 172 MiB (3%)
Title : AC-3 5.1 @ 384 kb/s
Language : English
Service kind : Complete Main
Default : No
Forced : No

Text #1
ID : 4
Format :
Codec ID : S_TEXT/
Codec ID/Info : Advanced Sub Station Alpha
Duration : 1 h 1 min
Bit rate : 5 b/s
Count of elements : 19
Compression mode : Lossless
Stream size : 2.38 KiB (0%)
Title : Forced
Language : Ukrainian
Default : Yes
Forced : Yes

Text #2
ID : 5
Format : UTF-8
Codec ID : S_TEXT/UTF8
Codec ID/Info : UTF-8 Plain Text
Duration : 1 h 1 min
Bit rate : 96 b/s
Count of elements : 700
Stream size : 43.5 KiB (0%)
Title : Full
Language : Ukrainian
Default : No
Forced : No

Text #3
ID : 6
Format : UTF-8
Codec ID : S_TEXT/UTF8
Codec ID/Info : UTF-8 Plain Text
Duration : 1 h 1 min
Bit rate : 64 b/s
Count of elements : 851
Stream size : 29.1 KiB (0%)
Language : English
Default : No
Forced : No
Скріншоти









Джерело: &
Особиста оцінка: 8 - мені сподобалося



Авторський реліз (завантажувати можна без реєстрації)
 Трекер:    Зареєстрований   

Завантажити / скачати серіал українською



відео для новачків



 Зареєстрований:   2019-07-26 14:52
 Розмір:   39.4 GB 
 Оцінка серіалу:   10/10 (Голосів: 6)
   
bot 
робот


З нами з: 30.09.07
Востаннє: 26.05.05
Повідомлень: 26425

2019-07-26 14:52  
Тему перенесено з Анонси релізів до форуму Серіали в HD


Argentum

panFrost 
Новенький


З нами з: 23.07.09
Востаннє: 19.11.20
Повідомлень: 19

2019-08-05 20:32  
НІ кого нема ?
Ваш часовий пояс: GMT + 2 Години

Нова тема   Відповісти