Левіафан / Leviafan / Leviathan (2014) 1080p H.265 Ukr/Rus | Rus/Eng/Fre/Spa

Нові коментарі

Нова тема   Відповісти
Автор Повідомлення
Anonymous 







2019-07-24 00:30  
Левіафан / Leviafan / Leviathan (2014) mini 1080p H.265 Ukr/Rus | Rus/Eng/Fre/Spa

Левіафан / Leviafan / Leviathan (2014) 1080p H.265 Ukr/Rus | Rus/Eng/Fre/Spa


Жанр: драма, кримінальний
Країна: Росія
Кінокомпанія: Non-Stop Productions, A Company Russia, Russian Ministry of Culture
Режисер: Андрій Звягінцев
Актори: Алєксєй Сєрєбряков, Єлєна Лядова, Владімір Вдовічєнков, Роман Мадянов, Анна Уколова, Алєксєй Розін, Сєргєй Походаєв, Платон Камєнєв, Сєргєй Бачурскій, Валєрій Грішко та інші

Сюжет:
Московський адвокат Дмітрій приїжджає в північну глибинку, щоб допомогти своєму старому армійському другові Ніколаю у судовому позові проти місцевої влади, яка хоче забрати землю і знести будинок, де живе головний герой...

Тривалість: 02:21:13
Якість: mini
Відео:
кодек: H.265 (HEVC)
розмір кадру: 1920 x 800
бітрейт: 4 198 кб/с
бітова глибина: 10 біт
Увага! Перед завантаженням переконайтесь, що ваш пристрій відтворення (та/або ПЗ) підтримує H.265 (HEVC)

Аудіо # 1:
мова: українська
переклад: багатоголосий закадровий | DniproFilm
кодек: AC-3 5.1
бітрейт: 384 кб/с
Підтримати українське озвучення
Для студії DniproFilm дуже важлива популярність, чим популярнішою буде студія, тим більшу кількість українського озвучення до нових фільмів та серіалів в неї замовлятимуть. Тому прохання до не байдужих підписуватися на їх телеграм канал
Аудіо # 2:
мова: російська
переклад: оригінал
кодек: 5.1
бітрейт: 1510 кб/с

Субтитри # 1:
мова: російська (Full),
тип: програмні (м'які)
формат: *.srt

Субтитри # 2:
мова: англійська (Full),
тип: програмні (м'які)
формат: *.srt

Субтитри # 3:
мова: французька (Full),
тип: програмні (м'які)
формат: *.srt

Субтитри # 4:
мова: іспанська (Full),
тип: програмні (м'які)
формат: *.srt


Info
Код:
General
Unique ID                                : 295143698924276912112616402206838693053 (0xDE0A9BD80F15C05AF3D388CC5B231CBD)
Complete name                            : Leviathan (2014) 1080p H.265 [UKR_RUS] [Hurtom].
Format                                   :
Format version                           : Version 4 / Version 2
File size                                : 6.02 GiB
Duration                                 : 2 h 21 min
Overall bit rate                         : 6 089 kb/s
Movie name                               : Левіафан / Leviafan / Leviathan (2014)
Encoded date                             : UTC 2019-07-23 22:19:00
Writing application                      : v20.0.0 ('I Am The Sun') 64-bit
Writing library                          : libebml v1.3.5 + v1.4.8
Cover                                    : Yes
Attachments                              : Cover.jpg

Video
ID                                       : 1
Format                                   : HEVC
Format/Info                              : High Efficiency Video Coding
Format profile                           : Main [email protected]@Main
Codec ID                                 : V_MPEGH/ISO/HEVC
Duration                                 : 2 h 21 min
Bit rate                                 : 4 198 kb/s
Width                                    : 1 920 pixels
Height                                   : 800 pixels
Display aspect ratio                     : 2.40:1
Frame rate mode                          : Constant
Frame rate                               : 24.000 FPS
Color space                              : YUV
Chroma subsampling                       : 4:2:0
Bit depth                                : 10 bits
Bits/(Pixel*Frame)                       : 0.114
Stream size                              : 4.14 GiB (69%)
Title                                    : Левіафан / Leviafan / Leviathan (2014)
Writing library                          : x265 2.9+8-27d8424c799d:[Windows][MSVC 1900][64 bit] 10bit
Encoding settings                        : cpuid=1111039 / frame-threads=4 / numa-pools=16 / wpp / no-pmode / no-pme / no-psnr / no-ssim / log-level=2 / input-csp=1 / input-res=1920x800 / interlace=0 / total-frames=203373 / level-idc=0 / high-tier=1 / uhd-bd=0 / ref=4 / no-allow-non-conformance / no-repeat-headers / annexb / no-aud / no-hrd / info / hash=0 / no-temporal-layers / open-gop / min-keyint=24 / keyint=250 / gop-lookahead=0 / bframes=8 / b-adapt=2 / b-pyramid / bframe-bias=0 / rc-lookahead=60 / lookahead-slices=4 / scenecut=40 / radl=0 / no-intra-refresh / ctu=64 / min-cu-size=8 / rect / no-amp / max-tu-size=32 / tu-inter-depth=1 / tu-intra-depth=1 / limit-tu=0 / rdoq-level=2 / dynamic-rd=0.00 / no-ssim-rd / signhide / no-tskip / nr-intra=0 / nr-inter=0 / no-constrained-intra / strong-intra-smoothing / max-merge=3 / limit-refs=3 / limit-modes / me=3 / subme=5 / merange=57 / temporal-mvp / weightp / no-weightb / no-analyze-src-pics / deblock=-3:-3 / no-sao / no-sao-non-deblock / rd=4 / no-early-skip / rskip / no-fast-intra / no-tskip-fast / no-cu-lossless / no-b-intra / no-splitrd-skip / rdpenalty=0 / psy-rd=2.00 / psy-rdoq=1.00 / no-rd-refine / no-lossless / cbqpoffs=0 / crqpoffs=0 / rc=abr / bitrate=4200 / qcomp=0.60 / qpstep=4 / stats-write=0 / stats-read=2 / cplxblur=20.0 / qblur=0.5 / ipratio=1.40 / pbratio=1.30 / aq-mode=3 / aq-strength=1.00 / cutree / zone-count=0 / no-strict-cbr / qg-size=32 / no-rc-grain / qpmax=69 / qpmin=0 / no-const-vbv / sar=0 / overscan=0 / videoformat=5 / range=0 / colorprim=2 / transfer=2 / colormatrix=2 / chromaloc=0 / display-window=0 / max-cll=0,0 / min-luma=0 / max-luma=1023 / log2-max-poc-lsb=8 / vui-timing-info / vui-hrd-info / slices=1 / no-opt-qp-pps / no-opt-ref-list-length-pps / no-multi-pass-opt-rps / scenecut-bias=0.05 / no-opt-cu-delta-qp / no-aq-motion / no-hdr / no-hdr-opt / no-dhdr10-opt / no-idr-recovery-sei / analysis-reuse-level=5 / scale-factor=0 / refine-intra=0 / refine-inter=0 / refine-mv=0 / no-limit-sao / ctu-info=0 / no-lowpass-dct / refine-mv-type=0 / copy-pic=1 / max-ausize-factor=1.0 / no-dynamic-refine / no-single-sei
Default                                  : Yes
Forced                                   : No

Audio #1
ID                                       : 2
Format                                   : AC-3
Format/Info                              : Audio Coding 3
Codec ID                                 : A_AC3
Duration                                 : 2 h 21 min
Bit rate mode                            : Constant
Bit rate                                 : 384 kb/s
Channel(s)                               : 6 channels
Channel positions                        : Front: L C R, Side: L R, LFE
Sampling rate                            : 48.0 kHz
Frame rate                               : 31.250 FPS (1536 SPF)
Bit depth                                : 16 bits
Compression mode                         : Lossy
Stream size                              : 389 MiB (6%)
Title                                    : / 5.1 Ch / 384 kbps / DniproFilm / БЗ
Language                                 : Ukrainian
Service kind                             : Complete Main
Default                                  : Yes
Forced                                   : Yes

Audio #2
ID                                       : 3
Format                                   :
Format/Info                              : Digital Theater Systems
Codec ID                                 : A_DTS
Duration                                 : 2 h 21 min
Bit rate mode                            : Constant
Bit rate                                 : 1 509 kb/s
Channel(s)                               : 6 channels
Channel positions                        : Front: L C R, Side: L R, LFE
Sampling rate                            : 48.0 kHz
Frame rate                               : 93.750 FPS (512 SPF)
Bit depth                                : 24 bits
Compression mode                         : Lossy
Stream size                              : 1.49 GiB (25%)
Title                                    : / 5.1 Ch / 1509 kbps / Original
Language                                 : Russian
Default                                  : No
Forced                                   : No

Text #1
ID                                       : 4
Format                                   : UTF-8
Codec ID                                 : S_TEXT/UTF8
Codec ID/Info                            : UTF-8 Plain Text
Duration                                 : 2 h 7 min
Bit rate                                 : 87 b/s
Count of elements                        : 1360
Stream size                              : 81.9 KiB (0%)
Title                                    : Full
Language                                 : Russian
Default                                  : No
Forced                                   : No

Text #2
ID                                       : 5
Format                                   : UTF-8
Codec ID                                 : S_TEXT/UTF8
Codec ID/Info                            : UTF-8 Plain Text
Duration                                 : 2 h 14 min
Bit rate                                 : 42 b/s
Count of elements                        : 1457
Stream size                              : 42.1 KiB (0%)
Title                                    : Full
Language                                 : English
Default                                  : No
Forced                                   : No

Text #3
ID                                       : 6
Format                                   : UTF-8
Codec ID                                 : S_TEXT/UTF8
Codec ID/Info                            : UTF-8 Plain Text
Duration                                 : 2 h 20 min
Bit rate                                 : 42 b/s
Count of elements                        : 1512
Stream size                              : 43.3 KiB (0%)
Title                                    : Full
Language                                 : French
Default                                  : No
Forced                                   : No

Text #4
ID                                       : 7
Format                                   : UTF-8
Codec ID                                 : S_TEXT/UTF8
Codec ID/Info                            : UTF-8 Plain Text
Duration                                 : 2 h 12 min
Bit rate                                 : 45 b/s
Count of elements                        : 1308
Stream size                              : 44.5 KiB (0%)
Title                                    : Full
Language                                 : Spanish
Default                                  : No
Forced                                   : No

Menu
00:00:00.000                             : en:Chapter 01
00:12:07.083                             : en:Chapter 02
00:22:53.958                             : en:Chapter 03
00:35:28.583                             : en:Chapter 04
00:45:59.875                             : en:Chapter 05
00:56:46.875                             : en:Chapter 06
01:11:39.958                             : en:Chapter 07
01:21:29.833                             : en:Chapter 08
01:33:18.541                             : en:Chapter 09
01:47:12.333                             : en:Chapter 10
01:57:56.083                             : en:Chapter 11
02:09:30.458                             : en:Chapter 12
Світлини




Джерело: &
Особиста оцінка: 0 - не дивився


Авторський реліз (завантажувати можна без реєстрації)
 Трекер:    Зареєстрований   

Завантажити / скачати фільм українською



відео для новачків



 Зареєстрований:   2019-07-24 00:30
 Розмір:   6.02 GB 
 Оцінка фільму:   3.1/10 (Голосів: 18)
   
Інші релізи
   Левіафан / Leviafan / Leviathan (2014) 720p Ukr/Rus | Rus/Eng/Fre/Spa -Star-Lord-  0 / 0   6.27 GB   2019-07-23 23:39 
   Левіафан / Leviafan / Leviathan (2014) 1080p Ukr/Rus | Rus/Eng/Fre/Spa -Star-Lord-  0 / 0   15.09 GB   2019-07-23 23:33 
   Левіафан / Leviafan / Leviathan (2014) DniproFilm  7 / 0   2.15 GB   2019-07-23 10:40 
   Левіафан / Leviafan / Leviathan (2014) 720p Ukr/Rus DniproFilm  0 / 0   4.89 GB   2019-07-23 10:40 
   Левіафан / Leviafan / Leviathan (2014) 1080p Ukr/Rus DniproFilm  1 / 0   7.72 GB   2019-07-23 10:40 
pvm65 
Свій


З нами з: 02.01.16
Востаннє: 21.11.19
Повідомлень: 105

2019-08-02 22:37  
Може вистачить срати тим левіафаном на толоці
Ваш часовий пояс: GMT + 2 Години

Нова тема   Відповісти